<?xml version="1.0" standalone="no"?>
<!DOCTYPE svg PUBLIC "-//W3C//DTD SVG 1.1//EN" "http://www.w3.org/Graphics/SVG/1.1/DTD/svg11.dtd" >
<svg xmlns="http://www.w3.org/2000/svg">
<metadata>Generated by IcoMoon</metadata>
<defs>
<font id="propulse-icon" horiz-adv-x="1024">
<font-face units-per-em="1024" ascent="960" descent="-64" />
<missing-glyph horiz-adv-x="1024" />
<glyph unicode="&#x20;" horiz-adv-x="512" d="" />
<glyph unicode="&#xe900;" glyph-name="Court" d="M467.025 467.746c13.517-19.302 8.823-45.909-10.479-59.422l-244.653-171.311c-19.302-13.517-45.907-8.823-59.423 10.479s-8.825 45.905 10.478 59.422l244.653 171.311c19.304 13.513 45.907 8.823 59.424-10.479zM774.618 474.778c13.517-19.302 8.823-45.905-10.479-59.422l-209.702-146.837c-19.302-13.513-45.905-8.823-59.422 10.479s-8.823 45.909 10.479 59.422l209.702 146.837c19.302 13.517 45.905 8.823 59.422-10.479zM578.837 754.383c13.517-19.303 8.823-45.907-10.479-59.423l-209.702-146.836c-19.303-13.516-45.907-8.825-59.423 10.478s-8.825 45.907 10.478 59.423l209.704 146.836c19.302 13.516 45.905 8.825 59.422-10.478zM739.669 450.308l-195.78 279.602c-13.517 19.303-40.119 23.994-59.422 10.478l-139.803-97.891c-19.303-13.516-23.994-40.12-10.478-59.423l195.781-279.604c13.517-19.302 40.119-23.996 59.422-10.479l139.802 97.89c19.302 13.517 23.996 40.119 10.479 59.426zM645.295 436.314l-69.901-48.947-146.833 209.703 69.901 48.945 146.833-209.701zM841.271 153.702c23.565 0 42.667-19.102 42.667-42.667s-19.102-42.667-42.667-42.667h-341.333c-23.565 0-42.667 19.102-42.667 42.667s19.102 42.667 42.667 42.667h341.333z" />
<glyph unicode="&#xe901;" glyph-name="Doctor" d="M320 448c106.039 0 192 85.961 192 192v149.333c0 23.564-19.102 42.667-42.667 42.667h-42.615c-23.563 0-42.666-19.103-42.666-42.667 0-21.881 16.471-39.915 37.691-42.38l4.881-0.287 0.043-106.667c0-56.554-44.012-102.828-99.653-106.44l-7.014-0.227c-58.91 0-106.667 47.756-106.667 106.667l-0.043 106.667 5.018 0.287c19.587 2.275 35.129 17.816 37.404 37.404l0.287 4.976c0 23.564-19.103 42.667-42.667 42.667h-42.667c-23.564 0-42.667-19.103-42.667-42.667v-149.333c0-106.039 85.961-192 192-192zM574.059 64c133.662 0 236.608 135.889 236.608 298.667 0 23.565-19.102 42.667-42.667 42.667s-42.667-19.102-42.667-42.667c0-119.991-70.711-213.333-151.275-213.333h-38.784c-80.563 0-151.275 93.342-151.275 213.333v102.4c0 23.565-19.103 42.667-42.667 42.667s-42.667-19.102-42.667-42.667v-102.4c0-162.778 102.947-298.667 236.608-298.667h38.784zM768 320c-70.694 0-128 57.306-128 128s57.306 128 128 128c70.694 0 128-57.306 128-128s-57.306-128-128-128zM768 405.333c23.565 0 42.667 19.102 42.667 42.667s-19.102 42.667-42.667 42.667c-23.565 0-42.667-19.102-42.667-42.667s19.102-42.667 42.667-42.667z" />
<glyph unicode="&#xe902;" glyph-name="Heartbeat" d="M342.159 797.687c9.189 46.025 75.128 45.638 83.777-0.491l95.622-510.135 77.577 258.532c10.598 35.327 57.225 40.915 76.471 11.293l2.556-4.472 73.54-147.081h144.299c21.879 0 39.915-16.469 42.381-37.692l0.286-4.975c0-23.565-19.102-42.667-42.667-42.667h-170.667c-16.162 0-30.933 9.131-38.161 23.586l-37.231 74.462-97.075-323.639c-12.314-41.050-69.504-39.753-81.502-0.887l-1.301 5.282-87.386 466.061-42.020-210.551c-3.651-18.287-18.672-31.881-36.82-34.018l-5.021-0.294h-170.817c-23.564 0-42.667 19.102-42.667 42.667s19.103 42.667 42.667 42.667h135.808l78.351 392.354z" />
<glyph unicode="&#xe903;" glyph-name="Instagram" d="M334.153 874.667c-137.209 0-248.82-111.714-248.82-248.958v-355.556c0-137.207 111.714-248.819 248.958-248.819h355.556c137.207 0 248.819 111.714 248.819 248.96v355.554c0 137.209-111.714 248.82-248.96 248.82h-355.554zM760.887 732.445c19.627 0 35.558-15.929 35.558-35.556s-15.932-35.555-35.558-35.555c-19.627 0-35.554 15.929-35.554 35.555s15.927 35.556 35.554 35.556zM512 661.333c117.653 0 213.333-95.68 213.333-213.333s-95.68-213.333-213.333-213.333c-117.653 0-213.333 95.68-213.333 213.333s95.68 213.333 213.333 213.333zM512 590.222c-37.722 0-73.894-14.984-100.566-41.656s-41.656-62.845-41.656-100.566c0-37.722 14.984-73.894 41.656-100.565s62.845-41.655 100.566-41.655c37.722 0 73.894 14.985 100.565 41.655s41.655 62.844 41.655 100.565c0 37.722-14.985 73.894-41.655 100.566s-62.844 41.656-100.565 41.656z" />
<glyph unicode="&#xe904;" glyph-name="Medication" d="M283.449 736.912l-175.114-481.121c-36.268-99.644 15.11-209.822 114.753-246.089 99.644-36.271 209.821 15.108 246.088 114.752l175.117 481.122c36.267 99.644-15.113 209.821-114.756 246.089s-209.82-15.11-246.087-114.753zM363.636 707.727c20.148 55.358 81.36 83.901 136.716 63.752s83.9-81.359 63.753-136.716l-175.115-481.124c-20.148-55.356-81.359-83.9-136.716-63.748-55.358 20.147-83.901 81.357-63.752 136.713l175.114 481.124zM230.032 489.195c8.752 21.879 33.583 32.521 55.461 23.77l213.332-85.333c21.879-8.751 32.521-33.583 23.77-55.458-8.751-21.879-33.583-32.521-55.458-23.77l-213.335 85.333c-21.879 8.751-32.521 33.579-23.769 55.458zM738.978 409.348c-117.82 0-213.333-95.509-213.333-213.333 0-117.82 95.514-213.333 213.333-213.333s213.333 95.514 213.333 213.333c0 117.824-95.514 213.333-213.333 213.333zM738.978 324.015c70.694 0 128-57.306 128-128 0-70.69-57.306-128-128-128-70.69 0-128 57.31-128 128 0 70.694 57.31 128 128 128zM866.978 238.682c23.565 0 42.667-19.102 42.667-42.667 0-23.561-19.102-42.667-42.667-42.667h-256c-23.565 0-42.667 19.106-42.667 42.667 0 23.565 19.102 42.667 42.667 42.667h256z" />
<glyph unicode="&#xe905;" glyph-name="Paint" d="M597.333 362.667h-170.667c-23.564 0-42.667-19.102-42.667-42.667v-256c0-23.565 19.103-42.667 42.667-42.667h170.667c23.565 0 42.667 19.102 42.667 42.667v256c0 23.565-19.102 42.667-42.667 42.667zM554.667 277.333v-170.667h-85.333v170.667h85.333zM809.408 789.333c47.13 0 85.333-38.205 85.333-85.333v-170.667c0-47.13-38.204-85.333-85.333-85.333h-254.741v-128c0-23.565-19.102-42.667-42.667-42.667s-42.667 19.102-42.667 42.667v128c0 47.13 38.204 85.333 85.333 85.333h254.741v170.667h-84.075c-23.565 0-42.667 19.103-42.667 42.667s19.102 42.667 42.667 42.667h84.075zM725.333 874.667h-554.667c-23.564 0-42.667-19.103-42.667-42.667v-170.667c0-23.564 19.103-42.667 42.667-42.667h554.667c23.565 0 42.667 19.103 42.667 42.667v170.667c0 23.564-19.102 42.667-42.667 42.667zM682.667 789.333v-85.333h-469.333v85.333h469.333z" />
<glyph unicode="&#xe906;" glyph-name="Tiktok" d="M775.488 692.169c-5.756 2.977-11.366 6.24-16.798 9.777-15.799 10.445-30.285 22.752-43.145 36.656-32.175 36.816-44.194 74.165-48.619 100.315h0.175c-3.695 21.705-2.167 35.749-1.937 35.749h-146.551v-566.69c0-7.612 0-15.13-0.32-22.562 0-0.922-0.090-1.775-0.141-2.773 0-0.405 0-0.832-0.090-1.259 0-0.107 0-0.213 0-0.32-1.545-20.335-8.064-39.974-18.982-57.199-10.914-17.22-25.899-31.497-43.627-41.57-18.479-10.513-39.379-16.030-60.639-16-68.281 0-123.62 55.676-123.62 124.437s55.34 124.437 123.62 124.437c12.925 0.013 25.771-2.022 38.060-6.025l0.179 149.219c-37.308 4.819-75.209 1.854-111.313-8.708s-69.627-28.49-98.455-52.656c-25.26-21.948-46.496-48.137-62.752-77.385-6.186-10.667-29.527-53.525-32.354-123.089-1.777-39.479 10.080-80.384 15.732-97.293v-0.354c3.555-9.954 17.332-43.925 39.785-72.563 18.105-22.976 39.494-43.153 63.481-59.891v0.354l0.355-0.354c70.948-48.213 149.61-45.047 149.61-45.047 13.617 0.55 59.232 0 111.033 24.55 57.455 27.217 90.167 67.763 90.167 67.763 20.894 24.23 37.513 51.84 49.135 81.651 13.261 34.859 17.685 76.672 17.685 93.38v300.644c1.779-1.067 25.459-16.728 25.459-16.728s34.112-21.866 87.339-36.105c38.182-10.132 89.63-12.266 89.63-12.266v145.486c-18.027-1.955-54.63 3.733-92.105 22.417z" />
<glyph unicode="&#xe907;" glyph-name="Pause" d="M341.333 106.667c47.128 0 85.333 33.958 85.333 75.853 0 41.89-38.205 75.853-85.333 75.853s-85.333-33.963-85.333-75.853c0-41.894 38.205-75.853 85.333-75.853zM341.333 637.629c47.128 0 85.333 33.96 85.333 75.852s-38.205 75.852-85.333 75.852c-47.128 0-85.333-33.96-85.333-75.852s38.205-75.852 85.333-75.852zM256 713.481h170.667v-530.962h-170.667v530.962zM682.667 106.667c47.13 0 85.333 33.958 85.333 75.853 0 41.89-38.204 75.853-85.333 75.853s-85.333-33.963-85.333-75.853c0-41.894 38.204-75.853 85.333-75.853zM682.667 637.629c47.13 0 85.333 33.96 85.333 75.852s-38.204 75.852-85.333 75.852c-47.13 0-85.333-33.96-85.333-75.852s38.204-75.852 85.333-75.852zM597.333 713.481h170.667v-530.962h-170.667v530.962z" />
<glyph unicode="&#xe908;" glyph-name="Share" d="M810.667 21.333c23.565 0 42.667 19.102 42.667 42.667v431.407c0 41.388-30.076 76.874-70.357 80.319l-6.443 0.274h-51.2c-23.565 0-42.667-19.103-42.667-42.667s19.102-42.667 42.667-42.667h42.667v-384h-512v384h42.667c23.564 0 42.667 19.102 42.667 42.667s-19.103 42.667-42.667 42.667h-51.2l-6.443-0.274c-40.283-3.445-70.357-38.931-70.357-80.319v-431.407c0-21.879 16.471-39.915 37.691-42.381l4.976-0.286h597.333zM481.83 862.244c7.689 7.69 17.587 11.831 27.652 12.423h5.035c10.065-0.591 19.964-4.733 27.652-12.423l181.018-181.019c16.666-16.662 16.666-43.677 0-60.34l-4.019-3.549c-16.738-13.015-40.939-11.831-56.32 3.549l-108.156 108.203-0.026-359.027c0-23.565-19.102-42.667-42.667-42.667l-4.975 0.286c-21.222 2.466-37.692 20.501-37.692 42.381l0.026 359.027-108.209-108.203c-16.662-16.663-43.677-16.663-60.34 0s-16.662 43.677 0 60.34l181.020 181.019z" />
<glyph unicode="&#xe909;" glyph-name="Add-profil" d="M384.001 714.667c94.258 0 170.666-75.069 170.666-167.672s-76.407-167.671-170.666-167.671c-94.257 0-170.667 75.068-170.667 167.671s76.41 167.672 170.667 167.672zM384.001 629.333c-47.463 0-85.333-37.206-85.333-82.339s37.87-82.337 85.333-82.337c47.462 0 85.332 37.205 85.332 82.337s-37.871 82.339-85.332 82.339zM384.032 326.737c154.485 0 283.091-110.839 298.409-258.33 2.432-23.437-14.596-44.412-38.033-46.848-23.437-2.432-44.412 14.596-46.844 38.033-10.714 103.168-101.961 181.811-213.532 181.811-111.94 0-203.132-78.477-213.582-181.7-2.374-23.445-23.303-40.525-46.747-38.153s-40.526 23.3-38.152 46.746c14.955 147.721 143.612 258.441 298.481 258.441zM768 874.667c21.884 0 39.915-16.471 42.381-37.691l0.286-4.976-0.004-85.333h85.338c23.565 0 42.667-19.103 42.667-42.667 0-21.881-16.469-39.915-37.692-42.38l-4.975-0.287h-85.338l0.004-85.333c0-23.564-19.102-42.667-42.667-42.667-21.879 0-39.915 16.471-42.381 37.691l-0.286 4.976-0.004 85.333h-85.329c-23.565 0-42.667 19.103-42.667 42.667 0 21.881 16.474 39.915 37.692 42.38l4.975 0.287h85.329l0.004 85.333c0 23.564 19.102 42.667 42.667 42.667z" />
<glyph unicode="&#xe90a;" glyph-name="Add" d="M512 789.333c21.879 0 39.915-16.471 42.381-37.691l0.286-4.976v-256h256c23.565 0 42.667-19.102 42.667-42.667 0-21.879-16.469-39.915-37.692-42.381l-4.975-0.286h-256v-256c0-23.565-19.102-42.667-42.667-42.667-21.879 0-39.915 16.469-42.381 37.692l-0.286 4.975v256h-256c-23.564 0-42.667 19.102-42.667 42.667 0 21.879 16.471 39.915 37.691 42.381l4.976 0.286h256v256c0 23.564 19.102 42.667 42.667 42.667z" />
<glyph unicode="&#xe90b;" glyph-name="Alert" d="M512 874.667c235.639 0 426.667-191.025 426.667-426.667 0-235.639-191.027-426.667-426.667-426.667-235.642 0-426.667 191.027-426.667 426.667 0 235.642 191.025 426.667 426.667 426.667zM512 789.333c-188.513 0-341.333-152.82-341.333-341.333s152.82-341.333 341.333-341.333c188.514 0 341.333 152.819 341.333 341.333s-152.819 341.333-341.333 341.333zM512 320c23.565 0 42.667-19.102 42.667-42.667s-19.102-42.667-42.667-42.667c-23.565 0-42.667 19.102-42.667 42.667s19.102 42.667 42.667 42.667zM512 661.333c23.565 0 42.667-19.103 42.667-42.667v-213.333c0-23.565-19.102-42.667-42.667-42.667s-42.667 19.102-42.667 42.667v213.333c0 23.564 19.102 42.667 42.667 42.667z" />
<glyph unicode="&#xe90c;" glyph-name="Angle-down" d="M542.161 291.972c-16.666-16.661-43.678-16.661-60.343 0l-211.188 211.191c-16.662 16.661-16.662 43.677 0 60.34s43.677 16.662 60.34 0l181.017-181.018 181.022 181.018c16.661 16.662 43.678 16.662 60.339 0s16.661-43.678 0-60.34l-211.187-211.191z" />
<glyph unicode="&#xe90d;" glyph-name="Angle-left" d="M376.225 457.907c-16.663-16.661-16.663-43.678 0-60.339l211.188-211.187c16.661-16.666 43.678-16.666 60.339 0 16.666 16.661 16.666 43.678 0 60.339l-181.018 181.018 181.018 181.021c16.666 16.662 16.666 43.677 0 60.34-16.661 16.662-43.678 16.662-60.339 0l-211.188-211.191z" />
<glyph unicode="&#xe90e;" glyph-name="Angle-right" d="M647.753 457.907c16.666-16.661 16.666-43.678 0-60.339l-211.187-211.187c-16.663-16.666-43.678-16.666-60.34 0-16.663 16.661-16.663 43.678 0 60.339l181.019 181.018-181.019 181.021c-16.663 16.662-16.663 43.677 0 60.34s43.677 16.662 60.34 0l211.187-211.191z" />
<glyph unicode="&#xe90f;" glyph-name="Angle-up" d="M542.161 563.503c-16.666 16.662-43.678 16.662-60.343 0l-211.187-211.188c-16.663-16.666-16.663-43.678 0-60.343 16.662-16.661 43.677-16.661 60.34 0l181.021 181.022 181.018-181.022c16.661-16.661 43.678-16.661 60.339 0 16.661 16.666 16.661 43.678 0 60.343l-211.187 211.188z" />
<glyph unicode="&#xe910;" glyph-name="Answer" d="M586.001 533.333c126.443 0 229.525-100.002 234.479-225.229l0.188-9.438v-101.338c0-23.561-19.102-42.667-42.667-42.667-21.884 0-39.915 16.474-42.381 37.692l-0.286 4.975v101.338c0 79.727-62.477 144.858-141.141 149.111l-8.192 0.222h-312.041c-23.564 0-42.667 19.102-42.667 42.667 0 21.879 16.471 39.915 37.691 42.381l4.976 0.286h312.041zM396.497 701.856c16.662 16.662 43.678 16.662 60.34 0 15.471-15.472 16.576-39.871 3.315-56.619l-3.315-3.721-150.849-150.849 150.849-150.848c15.471-15.475 16.576-39.872 3.315-56.619l-3.315-3.721c-15.471-15.475-39.871-16.58-56.618-3.319l-3.721 3.319-181.019 181.018c-15.472 15.471-16.578 39.872-3.316 56.619l3.316 3.721 181.019 181.020z" />
<glyph unicode="&#xe911;" glyph-name="Arrow-left" d="M467.371 237.124c16.661 16.661 16.661 43.678 0 60.339l-108.535 108.497h409.164c23.565 0 42.667 19.102 42.667 42.667s-19.102 42.667-42.667 42.667h-408.482l107.852 107.869c16.661 16.663 16.661 43.677 0 60.34-16.666 16.662-43.679 16.662-60.341 0l-181.020-181.018c-16.662-16.666-16.662-43.678 0-60.339l181.020-181.022c16.662-16.661 43.676-16.661 60.341 0z" />
<glyph unicode="&#xe912;" glyph-name="Arrow-right" d="M556.813 659.503c-16.666-16.663-16.666-43.677 0-60.34l108.531-108.497h-409.164c-23.564 0-42.667-19.102-42.667-42.667s19.103-42.667 42.667-42.667h408.482l-107.849-107.87c-16.666-16.661-16.666-43.678 0-60.339 16.661-16.661 43.674-16.661 60.339 0l181.018 181.022c16.661 16.661 16.661 43.674 0 60.339l-181.018 181.018c-16.666 16.662-43.678 16.662-60.339 0z" />
<glyph unicode="&#xe913;" glyph-name="Assistance" d="M512 874.667c107.9 0 206.443-40.051 281.574-106.097l23.339 23.352c16.666 16.662 43.678 16.662 60.343 0 16.661-16.662 16.661-43.677 0-60.34l-25.472-25.492c54.519-71.664 86.882-161.098 86.882-258.090 0-96.994-32.363-186.428-86.882-258.091l25.472-25.489c16.661-16.666 16.661-43.678 0-60.343-16.666-16.661-43.678-16.661-60.343 0l-23.339 23.356c-75.132-66.048-173.675-106.099-281.574-106.099-107.898 0-206.442 40.051-281.575 106.099l-23.34-23.356c-16.662-16.661-43.677-16.661-60.34 0-16.662 16.666-16.662 43.678 0 60.343l25.47 25.489c-54.518 71.663-86.882 161.097-86.882 258.091 0 96.992 32.364 186.426 86.882 258.090l-25.47 25.492c-16.662 16.662-16.662 43.677 0 60.34s43.677 16.662 60.34 0l23.34-23.352c75.133 66.046 173.677 106.097 281.575 106.097zM270.577 362.637l-89.153 0.013c30.878-119.945 125.317-214.374 245.268-245.235l-0.013 89.148c-72.735 25.702-130.386 83.345-156.102 156.075zM842.577 362.65l-89.156-0.013c-25.711-72.717-83.341-130.347-156.058-156.058l-0.013-89.156c119.932 30.874 214.353 125.295 245.227 245.227zM512 618.667c-94.257 0-170.667-76.41-170.667-170.667 0-94.255 76.41-170.667 170.667-170.667 94.255 0 170.667 76.412 170.667 170.667 0 94.257-76.412 170.667-170.667 170.667zM181.413 533.308l89.149 0.013c25.709 72.749 83.368 130.409 156.117 156.117l0.013 89.149c-119.965-30.867-214.412-125.314-245.279-245.279zM597.35 778.576l0.013-89.153c72.73-25.716 130.372-83.367 156.075-156.102l89.148-0.013c-30.861 119.951-125.291 214.39-245.235 245.268z" />
<glyph unicode="&#xe914;" glyph-name="ATM" d="M896 874.667c23.565 0 42.667-19.103 42.667-42.667s-19.102-42.667-42.667-42.667h-85.333v-725.333c0-23.565-19.102-42.667-42.667-42.667h-512c-23.564 0-42.667 19.102-42.667 42.667v725.333h-85.333c-23.564 0-42.667 19.103-42.667 42.667s19.103 42.667 42.667 42.667h768zM298.667 789.333v-682.667h256v682.667h-256zM725.333 789.333h-85.333v-682.667h85.333v682.667zM384 362.667c21.881 0 39.915-16.469 42.38-37.692l0.287-4.975v-128c0-23.565-19.103-42.667-42.667-42.667-21.881 0-39.915 16.469-42.38 37.692l-0.287 4.975v128c0 23.565 19.103 42.667 42.667 42.667z" />
<glyph unicode="&#xe915;" glyph-name="Attached-document" d="M225.385 92.211c-66.649 66.65-66.649 174.707 0 241.357l377.123 377.124c41.655 41.656 109.193 41.656 150.848 0 41.66-41.656 41.66-109.193 0-150.849l-316.783-316.784c-16.661-16.661-43.677-16.661-60.339 0s-16.663 43.678 0 60.339l316.783 316.784c8.333 8.332 8.333 21.839 0 30.17-8.329 8.331-21.837 8.331-30.17 0l-377.123-377.124c-33.325-33.323-33.325-87.356 0-120.678 31.81-31.812 82.486-33.259 116.011-4.339l4.669 4.339 377.122 377.122c58.321 58.319 58.321 152.872 0 211.19-58.317 58.319-152.87 58.319-211.187 0l-316.784-316.785c-16.662-16.661-43.677-16.661-60.34 0-16.663 16.666-16.663 43.678 0 60.343l316.784 316.782c91.644 91.643 240.226 91.643 331.87 0 86.549-86.551 91.358-223.892 14.426-316.086l0.657-0.695-392.209-392.209c-66.648-66.65-174.708-66.65-241.358 0z" />
<glyph unicode="&#xe916;" glyph-name="Baby" d="M875.217 570.794l0.559-11.379 0.171-111.415c0.009-2.385-0.183-4.595-0.55-6.647-0.674-8.567-2.641-17.020-5.854-25.045l-51.2-128c-12.958-32.397-44.335-53.641-79.228-53.641h-368.894c-34.893 0-66.271 21.244-79.23 53.641l-69.328 173.103c-0.516 1.033-0.995 2.095-1.434 3.183l-75.293 187.060c-8.799 21.86 1.789 46.713 23.649 55.512s46.714-1.789 55.512-23.649l60.419-150.153 506.012-0.030-0.051 24.31c-5.372 139.296-66.799 198.365-200.789 187.88l-6.618-0.576 0.068-0.436c0.866-13.376 3.191-27.32 7.411-40.905l3.524-10.106c7.467-19.201 18.543-35.286 33.873-47.886 18.202-14.962 20.83-41.85 5.867-60.054s-41.847-20.832-60.053-5.869c-27.226 22.379-46.669 50.619-59.217 82.875-15.902 40.888-19.294 82.348-16.068 118.319l0.9 7.963c2.722 18.394 17.045 32.907 35.401 35.872 208.192 33.627 328.538-54.984 340.442-253.926zM319.019 448.043l51.202-128.043h368.894l51.2 128-471.296 0.043zM384 23.94c47.129 0 85.333 38.208 85.333 85.333 0 47.13-38.204 85.333-85.333 85.333s-85.333-38.204-85.333-85.333c0-47.125 38.205-85.333 85.333-85.333zM725.333 23.94c47.13 0 85.333 38.208 85.333 85.333 0 47.13-38.204 85.333-85.333 85.333s-85.333-38.204-85.333-85.333c0-47.125 38.204-85.333 85.333-85.333z" />
<glyph unicode="&#xe917;" glyph-name="Bell" d="M501.734 874.493c-160.197-5.412-288.401-136.981-288.401-298.493v-162.389l-58.877-147.251c-4.032-10.082-6.103-20.838-6.103-31.693 0-47.13 38.205-85.333 85.333-85.333h556.628c10.854 0 21.611 2.074 31.693 6.101l6.093 2.718c39.603 19.503 58.112 66.534 41.442 108.207l-58.876 147.166v162.475l-0.183 10.382c-5.926 161.004-137.698 288.285-298.483 288.285l-10.266-0.173zM512 789.333c114.837 0 208.969-90.924 213.184-205.307l0.158-8.811-0.009-169.882c0-5.427 1.037-10.807 3.051-15.846l61.931-154.82h-556.628l61.928 154.82c2.016 5.039 3.052 10.419 3.052 15.846v170.667c0 117.821 95.513 213.333 213.333 213.333zM512 21.333c47.13 0 85.333 38.204 85.333 85.333h-170.667c0-47.13 38.204-85.333 85.333-85.333z" />
<glyph unicode="&#xe918;" glyph-name="Boat" d="M469.333 851.025c14.865 0 28.655-7.735 36.407-20.418l338.082-553.236 35.648-0.038c23.561 0 42.667-19.102 42.667-42.667 0-4.587-0.742-9.143-2.193-13.491l-56.887-170.667c-5.807-17.425-22.11-29.175-40.478-29.175h-621.161c-18.365 0-34.67 11.75-40.477 29.175l-56.889 170.667c-7.451 22.353 4.63 46.515 26.985 53.969 4.351 1.451 8.907 2.189 13.492 2.189l47.434 0.038 234.667 312.875 0.036 218.112c0 23.564 19.102 42.667 42.667 42.667zM820.224 192h-616.491l28.416-85.333h559.659l28.416 85.333zM512 656.683v-379.349h231.808l-231.808 379.349zM426.671 447.957l-128.002-170.624h128.002v170.624z" />
<glyph unicode="&#xe919;" glyph-name="Budget" d="M512 874.667c14.417 0 28.663-0.715 42.714-2.111l-0.047-381.889 381.892 0.004c1.395-14.033 2.108-28.271 2.108-42.671 0-235.639-191.027-426.667-426.667-426.667-235.642 0-426.667 191.027-426.667 426.667 0 235.642 191.025 426.667 426.667 426.667zM477.483 389.419l-224.011-164.297c62.593-72.542 155.199-118.455 258.528-118.455 14.17 0 28.139 0.862 41.86 2.543l-76.378 280.209zM850.645 405.376l-289.067-0.043 75.029-275.209c111.275 43.652 194.057 144.047 212.745 265.574l1.293 9.677zM469.376 786.688l-9.677-1.337c-163.686-25.169-289.033-166.622-289.033-337.351 0-54.494 12.77-106.005 35.48-151.701l263.144 192.96 0.085 297.429z" />
<glyph unicode="&#xe91a;" glyph-name="CA" d="M887.915 224c-0.102-18.253-0.141-71.134-0.141-71.134l-791.753-0.23c0.143 21.495-0.020 71.364-0.020 71.364h791.915zM781.568 437.333c0 0 21.641-49.826 43.255-99.759l6.797-15.714c8.998-20.8 17.587-40.691 24.145-55.966l-106.172 0.23c-12.314 0.021-23.889 9.314-28.087 20.395-12.966 32.137-26.957 63.569-38.839 95.706l98.901 55.108zM666.633 704c6.677-10.726 11.554-23.22 16.452-35.36l66.167-146.43-94.601-51.447c0 0-13.427 35.533-27.682 72.82l-5.713 14.929c-6.647 17.339-13.111 34.080-18.108 46.788h-1.762c-28.245-54.526-50.496-111.591-78.741-166.115-34.867-33.097-82.701-37.999-127.399-47.898l-11.247-1.412 0.369 5.363 158.475 301.527 4.237 6.756 119.552 0.478zM676.727 384.337c-128.832-63.236-259.752-129.34-415.5-118.302-62.214 5.841-124.734 35.942-153.454 97.015-31.895 52.51-28.556 131.358 7.047 180.521 56.785 82.299 141.614 134.227 229.577 159.027 30.236 6.694 77.741 20.164 98.061-14.489 8.073-21.058 14.69-42.49 18.85-64.983-74.179 2.307-138.584-27.877-197.725-67.020-46.481-33.799-93.699-77.933-112.075-131.42-5.306-16.047-2.54-35.674 8.686-48.188 46.337-37.564 116.335-27.708 174.001-22.118 110.784 17.587 212.245 63.509 310.084 115.396l94.601 51.447 193.259 108.055h2.108l-0.205-94.917-158.413-94.918-98.901-55.108zM933.623 668.525l-151.364-82.465c-9.485-3.908-21.449-4.573-30.588 0.416-16.836 15.383-20.668 37.169-28.369 56.813 6.349 4.261 16.9 4.241 24.64 7.442l38.025 18.106 145.361 77.83h3.153l-0.858-78.141z" />
<glyph unicode="&#xe91b;" glyph-name="Calendar" d="M725.333 874.667c21.879 0 39.915-16.471 42.381-37.691l0.286-4.976v-42.624l128-0.043c23.565 0 42.667-19.103 42.667-42.667v-682.667c0-23.565-19.102-42.667-42.667-42.667h-768c-23.564 0-42.667 19.102-42.667 42.667v682.667c0 23.564 19.103 42.667 42.667 42.667l128 0.043v42.624c0 23.564 19.103 42.667 42.667 42.667 21.881 0 39.915-16.471 42.38-37.691l0.287-4.976v-42.624h341.333v42.624c0 23.564 19.102 42.667 42.667 42.667zM853.333 490.709h-682.667v-384.043h682.667v384.043zM256 704.043l-85.333-0.043v-127.957h682.667v127.957h-85.333c0-23.564-19.102-42.667-42.667-42.667-21.879 0-39.915 16.471-42.381 37.691l-0.286 4.976v0.043l-341.333-0.043c0-23.564-19.103-42.667-42.667-42.667-21.881 0-39.915 16.471-42.38 37.691l-0.287 4.976v0.043z" />
<glyph unicode="&#xe91c;" glyph-name="Camera" d="M896 704c23.565 0 42.667-19.103 42.667-42.667v-512c0-23.565-19.102-42.667-42.667-42.667h-768c-23.564 0-42.667 19.102-42.667 42.667v512c0 23.564 19.103 42.667 42.667 42.667h768zM853.333 618.667h-682.667v-426.667h682.667v426.667zM384 533.333c70.694 0 128-57.306 128-128s-57.306-128-128-128c-70.692 0-128 57.306-128 128s57.308 128 128 128zM384 448c-23.564 0-42.667-19.102-42.667-42.667s19.103-42.667 42.667-42.667c23.564 0 42.667 19.102 42.667 42.667s-19.103 42.667-42.667 42.667zM725.333 533.333c23.565 0 42.667-19.102 42.667-42.667 0-21.879-16.469-39.915-37.692-42.381l-4.975-0.286h-85.333c-23.565 0-42.667 19.102-42.667 42.667 0 21.879 16.469 39.915 37.692 42.381l4.975 0.286h85.333zM256 789.333h128c23.564 0 42.667-19.103 42.667-42.667v-42.667h-213.333v42.667c0 23.564 19.103 42.667 42.667 42.667z" />
<glyph unicode="&#xe91d;" glyph-name="Car" d="M298.667 192c-55.718 0-103.121 35.601-120.703 85.295l-49.964 0.038c-21.881 0-39.915 16.469-42.38 37.692l-0.287 4.975v203.567c0 12.44 5.423 24.166 14.688 32.212l4.201 3.214 205.272 137.768c5.625 3.775 12.048 6.143 18.727 6.939l5.050 0.3h303.379c11.652 0 22.797-4.765 30.848-13.189 79.13-82.805 149.781-133.967 239.932-159.039 16.785-4.668 28.868-18.982 30.925-35.942l0.311-5.163v-170.667c0-21.879-16.469-39.915-37.692-42.381l-4.975-0.286-49.963-0.038c-17.583-49.694-64.986-85.295-120.704-85.295s-103.121 35.601-120.704 85.295h-185.26c-17.583-49.694-64.986-85.295-120.703-85.295zM725.333 362.667c-23.565 0-42.667-19.102-42.667-42.667s19.102-42.667 42.667-42.667c23.565 0 42.667 19.102 42.667 42.667s-19.102 42.667-42.667 42.667zM298.667 362.667c-23.564 0-42.667-19.102-42.667-42.667s19.103-42.667 42.667-42.667c23.564 0 42.667 19.102 42.667 42.667s-19.103 42.667-42.667 42.667zM618.581 618.667h-272.341l-175.573-117.845v-138.155l7.282-0.004c17.571 49.719 64.985 85.338 120.718 85.338s103.147-35.618 120.718-85.338h185.232c17.57 49.719 64.981 85.338 120.717 85.338s103.147-35.618 120.717-85.338l7.283 0.004v96.683l-0.422 0.107c-82.189 28.642-149.909 76.162-219.819 144.721l-14.511 14.49z" />
<glyph unicode="&#xe91e;" glyph-name="Card" d="M896 746.667c23.565 0 42.667-19.103 42.667-42.667v-512c0-23.565-19.102-42.667-42.667-42.667h-768c-23.564 0-42.667 19.102-42.667 42.667v512c0 23.564 19.103 42.667 42.667 42.667h768zM853.333 490.667h-682.667v-256h682.667v256zM768 362.667c23.565 0 42.667-19.102 42.667-42.667 0-21.879-16.469-39.915-37.692-42.381l-4.975-0.286h-128c-23.565 0-42.667 19.102-42.667 42.667 0 21.879 16.469 39.915 37.692 42.381l4.975 0.286h128zM853.333 661.333h-682.667v-85.333h682.667v85.333z" />
<glyph unicode="&#xe91f;" glyph-name="Check-full" d="M512 874.667c235.639 0 426.667-191.025 426.667-426.667 0-235.639-191.027-426.667-426.667-426.667-235.642 0-426.667 191.027-426.667 426.667 0 235.642 191.025 426.667 426.667 426.667zM719.467 599.133c-16.747 13.262-41.143 12.157-56.619-3.315l-211.187-211.19-90.51 90.509-3.722 3.315c-16.747 13.265-41.146 12.16-56.618-3.315-16.662-16.661-16.662-43.678 0-60.339l150.85-150.848 271.526 271.529 3.319 3.721c13.261 16.748 12.156 41.146-3.319 56.619l-3.721 3.315z" />
<glyph unicode="&#xe920;" glyph-name="Check" d="M225.83 530.3c15.472 15.473 39.871 16.579 56.619 3.317l3.721-3.317 150.826-150.848 301.722 301.699c15.471 15.472 39.872 16.577 56.619 3.315l3.721-3.315c15.475-15.472 16.58-39.871 3.315-56.619l-3.315-3.721-362.039-362.037-211.188 211.187c-16.662 16.661-16.662 43.678 0 60.339z" />
<glyph unicode="&#xe921;" glyph-name="Chequebook" d="M545.246 756.342c6.097-7.58 9.421-17.016 9.421-26.744v-153.555l341.333-0.043c23.565 0 42.667-19.102 42.667-42.667v-341.333c0-23.565-19.102-42.667-42.667-42.667h-768c-23.564 0-42.667 19.102-42.667 42.667v340.297c0 19.817 13.644 37.026 32.941 41.543 67.567 15.818 135.892 42.568 204.974 80.249 55.526 30.287 109.528 66.539 162.008 108.754 18.359 14.771 45.218 11.86 59.989-6.501zM853.333 490.667l-298.667 0.043v-113.613c0-14.703-7.569-28.373-20.032-36.169-63.031-39.441-128.491-74.876-196.384-106.304l515.082 0.043v256zM469.333 644.423l-16.525-11.381c-29.108-19.532-58.674-37.491-88.698-53.868-60.495-32.998-120.898-58.509-181.188-76.416l-12.255-3.443v-241.493l15.435 5.555c23.628 8.866 47.139 18.3 70.534 28.309l35.007 15.441c58.721 26.692 115.526 56.495 170.429 89.417l7.262 4.51v243.369zM725.333 405.333c23.565 0 42.667-19.102 42.667-42.667 0-21.879-16.469-39.915-37.692-42.381l-4.975-0.286h-42.667c-23.565 0-42.667 19.102-42.667 42.667 0 21.879 16.469 39.915 37.692 42.381l4.975 0.286h42.667z" />
<glyph unicode="&#xe922;" glyph-name="Children" d="M737.382 892.956c-74.684 0-135.718-58.457-139.836-132.112l-0.222-7.948v-115.941c0-23.564 19.102-42.667 42.667-42.667 21.879 0 39.915 16.471 42.377 37.69l0.29 4.976v115.941c0 30.224 24.499 54.726 54.724 54.726 19.11 0 36.429-9.861 46.327-25.56l2.739-4.881c10.483-21.105 36.087-29.716 57.19-19.235 21.107 10.481 29.717 36.087 19.238 57.192-23.475 47.261-71.761 77.818-125.495 77.818zM512 832c212.079 0 384-171.923 384-384 0-212.079-171.921-384-384-384-212.077 0-384 171.921-384 384 0 212.077 171.923 384 384 384zM512 746.667c-164.949 0-298.667-133.718-298.667-298.667s133.718-298.667 298.667-298.667c164.949 0 298.667 133.717 298.667 298.667s-133.717 298.667-298.667 298.667zM617.651 312.905c19.644 13.013 46.118 7.637 59.132-12.011 13.013-19.644 7.637-46.118-12.006-59.132-49.617-32.866-100.489-49.762-152.021-49.762-51.605 0-102.272 16.947-151.339 49.92-19.559 13.141-24.761 39.65-11.618 59.209s39.652 24.759 59.211 11.618c35.595-23.919 69.958-35.413 103.746-35.413 33.865 0 68.629 11.546 104.896 35.571zM681.971 765.261c0.461-6.15 0.691-12.35 0.691-18.595 0-164.949-162.368-298.667-362.665-298.667-42.694 0-83.664 6.076-121.706 17.233-18.381 5.393-14.953 17.216-19.483 33.276-50.811 180.131 493.034 402.583 503.163 266.752zM187.709 559.324c39.028-16.488 83.963-25.991 132.288-25.991 156.427 0 277.332 99.569 277.332 213.333 0 15.195-2.155 30.137-6.263 44.622-26.667 93.964-490.66-195.081-403.356-231.964zM878.485 412.907c-17.882 3.383-35.264 7.855-52.028 13.325-134.208 43.797-229.124 151.655-229.124 277.769 0 18.199 1.975 36.017 5.764 53.318 2.782 12.724 6.545 25.169 11.221 37.279 46.583 120.657 290.368-386.644 264.166-381.69zM683.883 728.041c-5.325-16.395-1.216-6.682-1.216-24.041 0-85.041 67.558-162.149 167.014-195.665 33.591-11.319-136.213 310.756-165.798 219.706z" />
<glyph unicode="&#xe923;" glyph-name="Close-full" d="M512 874.667c235.639 0 426.667-191.025 426.667-426.667 0-235.639-191.027-426.667-426.667-426.667-235.642 0-426.667 191.027-426.667 426.667 0 235.642 191.025 426.667 426.667 426.667zM387.301 632.569c-16.738 13.014-40.94 11.831-56.32-3.549-16.662-16.662-16.662-43.677 0-60.34l120.625-120.658-120.625-120.7-3.549-4.019c-13.014-16.738-11.831-40.943 3.549-56.32 16.662-16.666 43.677-16.666 60.34 0l120.658 120.666 120.7-120.666 4.019-3.55c16.738-13.018 40.943-11.831 56.32 3.55 16.666 16.661 16.666 43.674 0 60.339l-120.666 120.7 120.666 120.658 3.55 4.019c13.018 16.738 11.831 40.94-3.55 56.32-16.661 16.662-43.674 16.662-60.339 0l-120.7-120.625-120.658 120.625-4.019 3.549z" />
<glyph unicode="&#xe924;" glyph-name="Close" d="M270.641 689.359c15.472 15.472 39.871 16.577 56.619 3.316l3.721-3.316 181.019-181.020 181.018 181.020c16.666 16.663 43.678 16.663 60.343 0 15.471-15.472 16.576-39.871 3.315-56.618l-3.315-3.721-181.022-181.019 181.022-181.018c16.661-16.666 16.661-43.678 0-60.343-15.475-15.471-39.872-16.576-56.619-3.315l-3.725 3.315-181.018 181.022-181.019-181.022c-16.663-16.661-43.677-16.661-60.34 0-15.472 15.475-16.577 39.872-3.315 56.619l3.315 3.725 181.020 181.018-181.020 181.019c-16.662 16.662-16.662 43.677 0 60.34z" />
<glyph unicode="&#xe925;" glyph-name="Cloudy" d="M440.529 661.333c60.314 0 115.49-28.547 150.11-74.732 18.999 3.85 38.682 5.888 58.842 5.888 159.573 0 289.186-127.717 289.186-285.58s-129.613-285.577-289.186-285.577h-246.516c-128.154 0-232.296 102.618-232.296 229.521 0 73.301 34.745 138.5 88.793 180.497-3.782 14.609-5.722 29.82-5.722 45.303 0 102.136 83.767 184.678 186.79 184.678zM649.481 507.157c-112.721 0-203.849-89.796-203.849-200.247 0-23.561-19.104-42.667-42.668-42.667s-42.667 19.106-42.667 42.667c0 29.683 4.582 58.3 13.085 85.201-67.075-13.431-117.381-71.676-117.381-141.257 0-76.843 61.353-139.857 138.886-143.974l8.076-0.213h246.516c112.725 0 203.853 89.796 203.853 200.243 0 110.451-91.127 200.247-203.853 200.247zM212.984 497.357c2.287-21.76-12.209-41.417-33.054-46.089l-4.919-0.806-42.433-4.459c-23.435-2.462-44.43 14.537-46.893 37.973-2.287 21.76 12.209 41.417 33.055 46.089l4.919 0.806 42.433 4.458c23.435 2.463 44.43-14.536 46.893-37.973zM440.529 576c-56.173 0-101.457-44.621-101.457-99.345l0.233-5.009c17.369 4.881 35.564 7.817 54.326 8.55l9.333 0.179 16.8 0.038c22.984 29.628 51.712 54.675 84.531 73.526-17.604 13.94-39.915 22.060-63.765 22.060zM216.724 723.158l4.575-2.797 34.95-24.473c19.302-13.516 23.994-40.12 10.478-59.423-12.476-17.818-36.105-23.185-54.848-13.275l-4.575 2.798-34.95 24.472c-19.302 13.516-23.994 40.121-10.478 59.423 12.476 17.818 36.105 23.185 54.848 13.275zM663.923 749.255c15.381-15.38 16.563-39.582 3.55-56.32l-3.55-4.019-30.17-30.17c-16.661-16.662-43.678-16.662-60.339 0-15.381 15.38-16.563 39.582-3.55 56.32l3.55 4.019 30.17 30.17c16.661 16.662 43.678 16.662 60.339 0zM407.168 831.255c21.88 0 39.915-16.471 42.381-37.69l0.286-4.976v-42.667c0-23.564-19.102-42.667-42.667-42.667-21.881 0-39.915 16.471-42.38 37.691l-0.287 4.976v42.667c0 23.564 19.102 42.667 42.667 42.667z" />
<glyph unicode="&#xe926;" glyph-name="Concierge" d="M170.667 234.667h682.667c23.565 0 42.667-19.102 42.667-42.667s-19.102-42.667-42.667-42.667h-682.667c-23.564 0-42.667 19.102-42.667 42.667s19.103 42.667 42.667 42.667zM426.667 746.667c0 23.564 19.102 42.667 42.667 42.667h85.333c23.565 0 42.667-19.103 42.667-42.667 0-21.881-16.469-39.915-37.692-42.38l-4.975-0.287v-42.667l-0.132-2.624c165.001-20.511 293.457-158.784 298.637-328.076l0.162-10.633c0-23.565-19.102-42.667-42.667-42.667h-597.333c-23.564 0-42.667 19.102-42.667 42.667 0 174.11 130.358 317.771 298.799 338.709l-0.107 1.287-0.026 44.004c-23.565 0-42.667 19.103-42.667 42.667zM512 576c-126.851 0-232.152-92.262-252.462-213.342h504.925c-20.309 121.079-125.611 213.342-252.463 213.342z" />
<glyph unicode="&#xe927;" glyph-name="Contact" d="M725.333 704c23.565 0 42.667-19.103 42.667-42.667v-426.667c0-23.565-19.102-42.667-42.667-42.667h-256l-91.565-150.259c-12.262-20.126-38.515-26.496-58.637-14.234-12.709 7.744-20.464 21.551-20.464 36.433v128.060h-170.667c-23.564 0-42.667 19.102-42.667 42.667v426.667c0 23.564 19.103 42.667 42.667 42.667h597.333zM682.667 618.667h-512v-341.333h213.333v-61.355l37.405 61.355h261.262v341.333zM859.644 874.667c41.459 0 75.627-31.815 78.784-72.439l0.239-6.157v-305.403c0-23.565-19.102-42.667-42.667-42.667-21.879 0-39.915 16.469-42.381 37.692l-0.286 4.975v298.667h-469.333c-21.881 0-39.915 16.471-42.38 37.691l-0.287 4.976c0 21.881 16.471 39.915 37.691 42.38l4.976 0.287h475.644z" />
<glyph unicode="&#xe928;" glyph-name="Cookie" d="M521.566 917.333c-264.279 0-478.899-209.913-478.899-469.333 0-259.422 214.62-469.333 478.899-469.333 211.601 0 396.476 135.74 457.809 331.2 8.734 27.827-12.407 56.021-41.566 55.433l-6.528-0.132c-40.811 0.009-76.028 28.958-83.358 67.75-4.262 22.571-25.63 37.717-48.341 34.261-7.023-1.067-14.174-1.609-21.41-1.609-75.849 0-136.956 59.767-136.956 133.018 0 19.941 4.497 39.162 13.009 56.604l4.587 8.568c11.951 20.431 4.902 46.323-14.891 58.142l-4.437 2.31c-30.093 13.536-49.591 42.71-49.591 75.16 0 14.804 3.994 28.966 11.477 41.467l4.028 6.108c19.196 26.504 2.637 63.861-29.892 67.438-17.826 1.96-35.823 2.947-53.939 2.947zM498.825 831.37l8.909 0.417-0.196-1.044c-1.967-10.243-2.978-20.735-2.978-31.37l0.243-9.028c2.423-44.693 22.711-85.532 54.921-114.703l8-6.756-2.624-7.928c-6.067-20.006-9.216-40.976-9.216-62.369l0.196-9.246c4.804-113.434 97.596-204.216 212.715-208.918l6.844-0.137 1.527-3.422c19.102-40.273 53.811-71.467 95.996-86.724l6.285-2.099-2.415-5.167c-64.060-131.251-200.956-218.876-355.465-218.876-217.569 0-393.566 172.139-393.566 384 0 204.429 163.863 371.871 370.825 383.37zM341.333 576c23.564 0 42.667 19.103 42.667 42.667s-19.103 42.667-42.667 42.667c-23.564 0-42.667-19.103-42.667-42.667s19.103-42.667 42.667-42.667zM384 149.333c23.564 0 42.667 19.102 42.667 42.667s-19.103 42.667-42.667 42.667c-23.564 0-42.667-19.102-42.667-42.667s19.103-42.667 42.667-42.667zM682.667 192c23.565 0 42.667 19.102 42.667 42.667s-19.102 42.667-42.667 42.667c-23.565 0-42.667-19.102-42.667-42.667s19.102-42.667 42.667-42.667zM256 362.667c47.128 0 85.333 38.204 85.333 85.333s-38.205 85.333-85.333 85.333c-47.128 0-85.333-38.204-85.333-85.333s38.205-85.333 85.333-85.333zM512 277.333c47.13 0 85.333 38.204 85.333 85.333s-38.204 85.333-85.333 85.333c-47.13 0-85.333-38.204-85.333-85.333s38.204-85.333 85.333-85.333z" />
<glyph unicode="&#xe929;" glyph-name="Copy" d="M896 874.667c23.565 0 42.667-19.103 42.667-42.667v-640c0-23.565-19.102-42.667-42.667-42.667h-256v-85.333c0-23.565-19.102-42.667-42.667-42.667h-469.333c-23.564 0-42.667 19.102-42.667 42.667v640c0 23.564 19.103 42.667 42.667 42.667h256v85.333c0 23.564 19.103 42.667 42.667 42.667h469.333zM554.667 661.333h-384v-554.667h384v554.667zM853.333 789.333h-384v-42.667h128c23.565 0 42.667-19.103 42.667-42.667v-469.333h213.333v554.667z" />
<glyph unicode="&#xe92a;" glyph-name="Cow" d="M213.333 874.667c70.692 0 128-57.308 128-128v-42.667h341.333v42.667c0 70.692 57.306 128 128 128h85.333c23.565 0 42.667-19.103 42.667-42.667v-85.333c0-70.692-57.306-128-128-128h-49.792l-3.541-42.667h138.667c23.565 0 42.667-19.103 42.667-42.667v-64c0-58.91-47.757-106.667-106.667-106.667h-92.459l-7.125-85.918c20.194-3.375 35.584-20.932 35.584-42.082v-170.667c0-23.565-19.102-42.667-42.667-42.667h-426.667c-23.564 0-42.667 19.102-42.667 42.667v170.667c0 21.15 15.391 38.707 35.584 42.082l-7.21 85.918h-92.373c-58.91 0-106.667 47.757-106.667 106.667v64c0 23.564 19.103 42.667 42.667 42.667h138.624l-3.541 42.667h-49.749c-68.168 0-123.889 53.287-127.783 120.479l-0.217 7.521v85.333c0 23.564 19.103 42.667 42.667 42.667h85.333zM682.667 192h-341.333v-85.333h341.333v85.333zM448 170.667c11.78 0 21.333-9.553 21.333-21.333s-9.553-21.333-21.333-21.333c-11.78 0-21.333 9.553-21.333 21.333s9.553 21.333 21.333 21.333zM576 170.667c11.78 0 21.333-9.553 21.333-21.333s-9.553-21.333-21.333-21.333c-11.78 0-21.333 9.553-21.333 21.333s9.553 21.333 21.333 21.333zM675.243 618.709l-326.528-0.043 28.459-341.333h269.611l28.459 341.376zM853.333 490.667h-85.333v-42.667h64c10.475 0 19.183 7.548 20.988 17.498l0.346 3.836v21.333zM256 490.667h-85.333v-21.333c0-10.475 7.547-19.183 17.498-20.988l3.835-0.346h64v42.667zM469.333 533.333c11.78 0 21.333-9.553 21.333-21.333s-9.553-21.333-21.333-21.333h-42.667c-11.782 0-21.333 9.553-21.333 21.333s9.551 21.333 21.333 21.333h42.667zM597.333 533.333c11.78 0 21.333-9.553 21.333-21.333s-9.553-21.333-21.333-21.333h-42.667c-11.78 0-21.333 9.553-21.333 21.333s9.553 21.333 21.333 21.333h42.667zM853.291 789.291l-42.624 0.043c-21.879 0-39.915-16.471-42.381-37.691l-0.286-4.976-0.043-42.709 42.709 0.043c21.879 0 39.915 16.471 42.381 37.691l0.286 4.976-0.043 42.624zM213.333 789.333l-42.624-0.043-0.043-42.624 0.287-4.976c2.464-21.22 20.498-37.691 42.38-37.691l42.709-0.043-0.043 42.709-0.287 4.976c-2.464 21.22-20.498 37.691-42.38 37.691z" />
<glyph unicode="&#xe92b;" glyph-name="Credit" d="M873.335 96.892c-120.448-50.372-240.892-75.558-361.335-75.558-120.486 0-240.972 25.203-361.458 75.61-13.654 5.713-22.542 19.063-22.542 33.865v634.177c0.001 14.876 8.908 28.306 22.613 34.092 121.593 51.337 239.793 75.59 361.387 75.59 120.469 0 240.943-25.196 361.412-75.59 13.709-5.914 22.588-19.414 22.588-34.344v-633.793c0-14.882-8.939-28.309-22.665-34.048zM512 192c-99.548 0-199.095 17.203-298.643 51.614l-0.014-85.308c99.633-34.428 199.222-51.639 298.767-51.639 99.529 0 199.061 17.207 298.59 51.627l-0.017 85.333c-99.558-34.419-199.121-51.627-298.684-51.627zM512 362.667c-99.548 0-199.095 17.203-298.643 51.614l-0.014-85.308c99.633-34.428 199.222-51.639 298.767-51.639 99.529 0 199.061 17.207 298.59 51.627l-0.017 85.333c-99.558-34.419-199.121-51.627-298.684-51.627zM512 533.333c-99.548 0-199.095 17.204-298.643 51.613l-0.014-85.307c99.633-34.428 199.222-51.639 298.767-51.639 99.529 0 199.061 17.207 298.59 51.627l-0.017 85.335c-99.558-34.419-199.121-51.628-298.684-51.628zM512.111 789.333c-99.546 0-199.134-17.213-298.767-51.639v-67.388c99.633-34.426 199.222-51.639 298.767-51.639 99.529 0 199.061 17.208 298.59 51.625v67.418c-99.529 34.416-199.061 51.625-298.59 51.625z" />
<glyph unicode="&#xe92c;" glyph-name="Deaf" d="M512 874.667c161.515 0 293.082-128.204 298.496-288.399l0.171-10.268c0-70.784-17.079-111.578-59.622-165.803l-13.948-17.293c-38.447-47.253-52.736-77.21-54.285-136.166l-0.145-11.405c0-119.104-96.559-224-213.333-224-38.396 0-75.285 10.142-107.742 29.141-20.335 11.908-27.17 38.042-15.265 58.381 11.905 20.335 38.042 27.166 58.377 15.262 19.466-11.396 41.492-17.451 64.63-17.451 65.651 0 123.853 60.77 127.791 131.098l0.209 7.569c0 84.523 19.302 132.356 65.975 191.919l13.794 17.114c36.992 45.423 48.23 69.679 48.23 121.634 0 117.821-95.514 213.333-213.333 213.333s-213.332-95.513-213.332-213.333c0-23.564-19.102-42.667-42.667-42.667s-42.667 19.103-42.667 42.667c0 164.949 133.718 298.667 298.666 298.667zM515.908 452.877c16.661-16.661 16.661-43.678 0-60.339l-331.869-331.87c-16.662-16.661-43.677-16.661-60.34 0-16.663 16.666-16.663 43.678 0 60.339l331.869 331.87c16.661 16.661 43.678 16.661 60.339 0zM512 704c70.694 0 128-57.308 128-128 0-23.564-19.102-42.667-42.667-42.667-21.879 0-39.915 16.471-42.377 37.691l-0.29 4.976c0 23.564-19.102 42.667-42.667 42.667-21.879 0-39.915-16.471-42.377-37.691l-0.29-4.976c0-23.564-19.102-42.667-42.667-42.667-23.563 0-42.666 19.103-42.666 42.667 0 70.692 57.309 128 127.999 128zM908.117 845.086c16.661-16.662 16.661-43.677 0-60.34l-30.17-30.17c-16.661-16.662-43.678-16.662-60.339 0-16.666 16.663-16.666 43.677 0 60.34l30.17 30.17c16.661 16.663 43.678 16.663 60.339 0z" />
<glyph unicode="&#xe92d;" glyph-name="Debit" d="M170.667 149.333c0 21.879 16.069 39.915 36.771 42.381l4.855 0.286h599.415c22.989 0 41.626-19.102 41.626-42.667 0-21.879-16.068-39.915-36.77-42.381l-4.855-0.286h-599.415c-22.989 0-41.626 19.102-41.626 42.667zM265.256 561.508l3.671 4.138 211.862 210.823c15.91 15.833 40.947 17.051 58.261 3.654l4.16-3.654 211.861-210.823c17.237-17.152 17.237-44.963 0-62.115-15.91-15.834-40.947-17.050-58.261-3.652l-4.16 3.652-138.027 137.28 0.043-322.453c0-22.656-19.102-41.024-42.667-41.024-21.879 0-39.915 15.838-42.381 36.241l-0.286 4.783-0.043 322.368-137.943-137.195c-15.911-15.834-40.947-17.050-58.262-3.652l-4.158 3.652c-15.911 15.834-17.135 40.747-3.671 57.977z" />
<glyph unicode="&#xe92e;" glyph-name="Direct-debit" d="M170.667 149.333c0 21.879 16.069 39.915 36.771 42.381l4.855 0.286h599.415c22.989 0 41.626-19.102 41.626-42.667 0-21.879-16.068-39.915-36.77-42.381l-4.855-0.286h-599.415c-22.989 0-41.626 19.102-41.626 42.667zM265.256 561.508l3.671 4.138 211.862 210.823c15.91 15.833 40.947 17.051 58.261 3.654l4.16-3.654 211.861-210.823c17.237-17.152 17.237-44.963 0-62.115-15.91-15.834-40.947-17.050-58.261-3.652l-4.16 3.652-138.027 137.28 0.043-322.453c0-22.656-19.102-41.024-42.667-41.024-21.879 0-39.915 15.838-42.381 36.241l-0.286 4.783-0.043 322.368-137.943-137.195c-15.911-15.834-40.947-17.050-58.262-3.652l-4.158 3.652c-15.911 15.834-17.135 40.747-3.671 57.977z" />
<glyph unicode="&#xe92f;" glyph-name="Document" d="M614.72 874.667c11.29 0 22.123-4.474 30.118-12.444l153.28-152.738c8.034-8.006 12.548-18.881 12.548-30.223v-615.262c0-23.565-19.102-42.667-42.667-42.667h-512c-23.564 0-42.667 19.102-42.667 42.667v768c0 23.564 19.103 42.667 42.667 42.667h358.72zM512.043 789.333h-213.376v-682.667h426.667v469.333h-127.932c-44.983 0-81.839 34.811-85.099 78.965l-0.235 6.368-0.026 128zM597.278 277.333c23.565 0 42.667-19.102 42.667-42.667 0-21.879-16.469-39.915-37.692-42.381l-4.975-0.286h-170.611c-23.564 0-42.667 19.102-42.667 42.667 0 21.879 16.471 39.915 37.691 42.381l4.976 0.286h170.611zM597.278 448c23.565 0 42.667-19.102 42.667-42.667 0-21.879-16.469-39.915-37.692-42.381l-4.975-0.286h-170.611c-23.564 0-42.667 19.102-42.667 42.667 0 21.879 16.471 39.915 37.691 42.381l4.976 0.286h170.611zM725.333 661.547l-127.957 127.488 0.026-127.701h127.932v0.213z" />
<glyph unicode="&#xe930;" glyph-name="Download" d="M213.333 64c-23.564 0-42.667 19.102-42.667 42.667v128c0 23.565 19.103 42.667 42.667 42.667s42.667-19.102 42.667-42.667v-85.333h512v85.333c0 23.565 19.102 42.667 42.667 42.667s42.667-19.102 42.667-42.667v-128c0-21.879-16.469-39.915-37.692-42.381l-4.975-0.286h-597.333zM512 832c23.565 0 42.667-19.103 42.667-42.667v-316.288l78.012 77.961c16.666 16.663 43.678 16.663 60.339 0 16.666-16.662 16.666-43.678 0-60.34l-150.848-150.848c-6.409-6.409-14.349-10.355-22.643-11.831l-5.009-0.593h-5.035c-10.065 0.593-19.964 4.732-27.652 12.425l-150.85 150.848c-16.662 16.661-16.662 43.677 0 60.34s43.677 16.663 60.34 0l78.013-78.004v316.331c0 23.564 19.102 42.667 42.667 42.667z" />
<glyph unicode="&#xe931;" glyph-name="Edit" d="M774.468 862.17l150.848-150.85c16.666-16.662 16.666-43.677 0-60.34l-536.116-536.118c-4.567-4.565-10.111-8.038-16.215-10.15l-231.030-79.962c-22.268-7.71-46.568 4.096-54.275 26.364-3.134 9.054-3.129 18.901 0.015 27.955l80.163 230.793c2.114 6.089 5.579 11.618 10.135 16.171l536.136 536.137c16.661 16.662 43.678 16.662 60.339 0zM633.472 660.907l-388.204-388.267-48.121-138.449 138.691 48 388.173 388.177-90.539 90.539zM744.307 771.681l-50.505-50.444 90.539-90.539 50.475 50.473-90.509 90.51z" />
<glyph unicode="&#xe932;" glyph-name="Emoji" d="M512 874.667c235.639 0 426.667-191.025 426.667-426.667 0-235.639-191.027-426.667-426.667-426.667-235.642 0-426.667 191.027-426.667 426.667 0 235.642 191.025 426.667 426.667 426.667zM512 789.333c-188.513 0-341.333-152.82-341.333-341.333s152.82-341.333 341.333-341.333c188.514 0 341.333 152.819 341.333 341.333s-152.819 341.333-341.333 341.333zM393.372 357.137c19.468-47.855 66.080-79.804 118.628-79.804 52.489 0 99.063 31.881 118.566 79.654 8.909 21.82 33.813 32.282 55.629 23.377 21.82-8.909 32.282-33.813 23.377-55.629-32.503-79.607-110.114-132.736-197.572-132.736-87.555 0-165.231 53.244-197.67 132.979-8.88 21.828 1.616 46.72 23.443 55.599s46.72-1.613 55.6-23.441zM362.667 618.667c35.346 0 64-28.654 64-64 0-35.345-28.654-64-64-64s-64 28.655-64 64c0 35.346 28.654 64 64 64zM661.333 618.667c35.345 0 64-28.654 64-64 0-35.345-28.655-64-64-64s-64 28.655-64 64c0 35.346 28.655 64 64 64z" />
<glyph unicode="&#xe933;" glyph-name="Energy" d="M701.773 874.667h-264.486c-17.222 0-32.756-10.355-39.382-26.253l-159.954-383.787-1.656-4.706c-7.732-26.743 12.283-54.374 41.039-54.374l122.624 0.043-91.38-329.766c-12.225-44.105 44.142-73.894 73.696-38.946l399.79 473.131c18.889 27.651-0.657 66.522-35.396 66.522l-111.531 0.026 105.638 238.144c12.514 28.212-8.137 59.968-39.002 59.968zM636.16 789.376l-105.638-238.213-1.783-4.729c-8.405-26.912 11.635-55.239 40.785-55.239l85.154 0.026-211.925-250.624 54.434 196.22 1.045 4.787c4.058 25.463-15.612 49.276-42.159 49.276h-114.739l124.373 298.496h170.453z" />
<glyph unicode="&#xe934;" glyph-name="English" d="M256 874.667c23.564 0 42.667-19.103 42.667-42.667h469.333c23.565 0 42.667-19.103 42.667-42.667v-341.333c0-23.565-19.102-42.667-42.667-42.667h-469.333v-341.333c0-23.565-19.103-42.667-42.667-42.667s-42.667 19.102-42.667 42.667v768c0 23.564 19.103 42.667 42.667 42.667zM490.667 581.035l-150.613-90.368h150.613v90.368zM683.904 490.667l-150.571 90.325v-90.325h150.571zM725.333 597.333h-136.32l136.32-81.792v81.792zM298.667 515.584l136.277 81.749h-136.277v-81.749zM725.333 640v81.835l-136.363-81.835h136.363zM298.667 721.792v-81.792h136.32l-136.32 81.792zM683.819 746.667h-343.68l150.528-90.325v90.325h42.667v-90.283l150.485 90.283z" />
<glyph unicode="&#xe935;" glyph-name="Erase" d="M896 746.667c23.565 0 42.667-19.103 42.667-42.667v-512c0-23.565-19.102-42.667-42.667-42.667h-535.043c-12.455 0-24.289 5.444-32.395 14.899l-219.429 256c-13.696 15.979-13.696 39.556 0 55.535l219.429 256c8.106 9.457 19.939 14.9 32.395 14.9h535.043zM853.333 661.333h-472.789l-182.827-213.333 182.869-213.333h472.747v426.667zM552.077 553.594l45.227-45.225 45.286 45.225c16.661 16.663 43.678 16.663 60.339 0s16.661-43.677 0-60.338l-45.286-45.227 45.286-45.286c16.661-16.661 16.661-43.674 0-60.339-16.661-16.661-43.678-16.661-60.339 0l-45.286 45.286-45.227-45.286c-16.661-16.661-43.674-16.661-60.339 0-16.661 16.666-16.661 43.678 0 60.339l45.227 45.286-45.227 45.227c-16.661 16.661-16.661 43.676 0 60.338 16.666 16.663 43.678 16.663 60.339 0z" />
<glyph unicode="&#xe936;" glyph-name="Eye-off" d="M512 362.667c47.13 0 85.333 38.204 85.333 85.333s-38.204 85.333-85.333 85.333c-47.13 0-85.333-38.204-85.333-85.333s38.204-85.333 85.333-85.333zM97.595 862.405c15.091 15.091 38.838 16.252 55.261 3.482l3.944-3.482 769.605-769.605c16.35-16.35 16.35-42.854 0-59.204-15.091-15.091-38.835-16.252-55.262-3.482l-3.942 3.482-769.605 769.605c-16.349 16.349-16.349 42.856 0 59.205zM512 810.667c202.487 0 326.528-147.084 385.421-255.112l8.346-15.888c2.62-5.183 5.077-10.246 7.377-15.161l6.426-14.298c0.99-2.304 1.941-4.565 2.854-6.784l5.005-12.736c1.51-4.053 2.867-7.902 4.070-11.524l3.153-10.172 2.236-8.674c1.19-5.257 1.779-9.425 1.779-12.318s-0.589-7.061-1.779-12.318l-2.236-8.674-3.153-10.172c-0.602-1.813-1.242-3.678-1.92-5.602l-4.535-12.147c-0.836-2.125-1.707-4.297-2.62-6.511l-5.948-13.815c-2.142-4.766-4.442-9.69-6.899-14.746l-7.863-15.543c-57.033-108.608-182.165-263.138-389.713-263.138-202.486 0-326.527 147.085-385.419 255.113l-8.347 15.889c-2.621 5.18-5.080 10.244-7.38 15.159l-6.422 14.298c-0.991 2.304-1.943 4.565-2.855 6.784l-5.005 12.736c-1.513 4.053-2.87 7.902-4.073 11.524l-3.15 10.172-2.238 8.674c-1.19 5.257-1.778 9.425-1.778 12.318s0.588 7.061 1.778 12.318l2.238 8.674 3.15 10.172c0.602 1.813 1.242 3.678 1.92 5.602l4.538 12.147c0.834 2.125 1.708 4.297 2.62 6.511l5.947 13.815c2.141 4.766 4.44 9.69 6.9 14.746l7.862 15.543c57.034 108.608 182.165 263.138 389.713 263.138zM512 725.333c-103.965 0-190.152-48.945-259.105-133.811-26.8-32.984-49.193-69.573-65.458-104.704-5.141-11.106-9.391-21.504-12.546-30.443l-2.816-8.333 0.658-2.001c3.245-10.202 8.277-22.976 14.704-36.86 16.265-35.132 38.658-71.718 65.458-104.704 68.953-84.864 155.139-133.811 259.105-133.811s190.153 48.947 259.106 133.811c26.799 32.986 49.19 69.572 65.455 104.704 5.141 11.106 9.391 21.504 12.548 30.443l2.773 8.418-0.614 1.916c-3.247 10.202-8.277 22.976-14.707 36.86-16.265 35.132-38.656 71.721-65.455 104.704-68.954 84.865-155.14 133.811-259.106 133.811z" />
<glyph unicode="&#xe937;" glyph-name="Eye-on" d="M512 362.667c47.13 0 85.333 38.204 85.333 85.333s-38.204 85.333-85.333 85.333c-47.13 0-85.333-38.204-85.333-85.333s38.204-85.333 85.333-85.333zM512 810.667c202.487 0 326.528-147.084 385.421-255.112l8.346-15.888c2.62-5.183 5.077-10.246 7.377-15.161l6.426-14.298c0.99-2.304 1.941-4.565 2.854-6.784l5.005-12.736c1.51-4.053 2.867-7.902 4.070-11.524l3.153-10.172 2.236-8.674c1.19-5.257 1.779-9.425 1.779-12.318s-0.589-7.061-1.779-12.318l-2.236-8.674-3.153-10.172c-0.602-1.813-1.242-3.678-1.92-5.602l-4.535-12.147c-0.836-2.125-1.707-4.297-2.62-6.511l-5.948-13.815c-2.142-4.766-4.442-9.69-6.899-14.746l-7.863-15.543c-57.033-108.608-182.165-263.138-389.713-263.138-202.486 0-326.527 147.085-385.419 255.113l-8.347 15.889c-2.621 5.18-5.080 10.244-7.38 15.159l-6.422 14.298c-0.991 2.304-1.943 4.565-2.855 6.784l-5.005 12.736c-1.513 4.053-2.87 7.902-4.073 11.524l-3.15 10.172-2.238 8.674c-1.19 5.257-1.778 9.425-1.778 12.318s0.588 7.061 1.778 12.318l2.238 8.674 3.15 10.172c0.602 1.813 1.242 3.678 1.92 5.602l4.538 12.147c0.834 2.125 1.708 4.297 2.62 6.511l5.947 13.815c2.141 4.766 4.44 9.69 6.9 14.746l7.862 15.543c57.034 108.608 182.165 263.138 389.713 263.138zM512 725.333c-103.965 0-190.152-48.945-259.105-133.811-26.8-32.984-49.193-69.573-65.458-104.704-5.141-11.106-9.391-21.504-12.546-30.443l-2.816-8.333 0.658-2.001c3.245-10.202 8.277-22.976 14.704-36.86 16.265-35.132 38.658-71.718 65.458-104.704 68.953-84.864 155.139-133.811 259.105-133.811s190.153 48.947 259.106 133.811c26.799 32.986 49.19 69.572 65.455 104.704 5.141 11.106 9.391 21.504 12.548 30.443l2.773 8.418-0.614 1.916c-3.247 10.202-8.277 22.976-14.707 36.86-16.265 35.132-38.656 71.721-65.455 104.704-68.954 84.865-155.14 133.811-259.106 133.811z" />
<glyph unicode="&#xe938;" glyph-name="Facebook" d="M405.333 590.222h-106.667v-142.222h106.667v-426.667h177.779v426.667h129.493l12.727 142.222h-142.221v59.271c0 33.955 6.827 47.395 39.642 47.395h102.579v177.778h-135.394c-127.859 0-184.606-56.285-184.606-164.089v-120.356z" />
<glyph unicode="&#xe939;" glyph-name="Family" d="M341.318 535.976c107.898 0 200.442-64.539 239.043-167.208 31.305 13.606 65.873 20.924 102.289 20.924 130.867 0 237.606-94.289 255.667-234.923 3.004-23.373-13.513-44.753-36.881-47.757-23.373-2.999-44.753 13.513-47.757 36.885-12.599 98.133-83.162 160.461-171.029 160.461-87.817 0-158.494-62.396-170.995-160.277-2.982-23.373-24.354-39.902-47.727-36.919-23.373 2.987-39.903 24.354-36.919 47.731 8.576 67.14 37.483 123.75 79.616 164.553-21.555 81.143-86.859 131.196-165.306 131.196-87.817 0-158.496-62.391-170.996-160.273-2.985-23.377-24.353-39.902-47.728-36.919-23.374 2.987-39.903 24.354-36.918 47.727 17.934 140.437 124.827 234.801 255.642 234.801zM681.6 685.714c73.050 0 132.267-59.218 132.267-132.267 0-73.051-59.217-132.268-132.267-132.268s-132.267 59.217-132.267 132.268c0 73.049 59.217 132.267 132.267 132.267zM681.6 600.381c-25.92 0-46.933-21.013-46.933-46.933s21.013-46.935 46.933-46.935c25.92 0 46.933 21.013 46.933 46.935s-21.013 46.933-46.933 46.933zM340.266 832c73.049 0 132.267-59.218 132.267-132.267s-59.218-132.267-132.267-132.267c-73.049 0-132.267 59.218-132.267 132.267s59.217 132.267 132.267 132.267zM340.266 746.667c-25.921 0-46.933-21.013-46.933-46.933s21.012-46.933 46.933-46.933c25.92 0 46.933 21.013 46.933 46.933s-21.013 46.933-46.933 46.933z" />
<glyph unicode="&#xe93a;" glyph-name="Favorite-empty" d="M530.615 772.599c8.627-4.183 15.595-11.15 19.776-19.776l85.683-176.713 194.543-26.883c23.343-3.226 39.65-24.763 36.425-48.106-1.314-9.498-5.786-18.274-12.698-24.917l-141.585-136.098 34.547-193.331c4.147-23.194-11.298-45.359-34.492-49.506-9.438-1.685-19.17-0.145-27.627 4.378l-173.188 92.599-173.189-92.599c-20.78-11.11-46.633-3.273-57.744 17.506-4.521 8.457-6.062 18.185-4.375 27.622l34.549 193.331-141.586 136.098c-16.989 16.329-17.522 43.337-1.193 60.326 6.644 6.912 15.423 11.385 24.92 12.697l194.542 26.883 85.684 176.713c10.283 21.203 35.802 30.057 57.007 19.776zM512 636.459l-47.292-97.58c-11.401-23.512-32.875-40.383-58.127-46.040l-6.976-1.259-107.381-14.822 78.153-75.136c18.839-18.108 28.249-43.742 25.824-69.508l-0.957-7.023-19.094-106.679 95.616 51.085c22.852 12.22 49.882 13.329 73.498 3.332l6.972-3.332 95.573-51.085-19.051 106.679c-4.599 25.724 2.859 51.998 19.964 71.411l4.902 5.12 78.11 75.136-107.337 14.822c-25.886 3.575-48.567 18.786-61.751 41.054l-3.354 6.245-47.292 97.58z" />
<glyph unicode="&#xe93b;" glyph-name="Favorite-full" d="M512 194.244l-173.189-92.599c-20.78-11.11-46.633-3.273-57.744 17.506-4.521 8.457-6.062 18.185-4.375 27.622l34.549 193.331-141.586 136.098c-16.989 16.329-17.522 43.337-1.193 60.326 6.644 6.912 15.423 11.385 24.92 12.697l194.542 26.883 85.684 176.713c10.283 21.203 35.802 30.057 57.007 19.776 8.627-4.183 15.595-11.15 19.776-19.776l85.683-176.713 194.543-26.883c23.343-3.226 39.65-24.763 36.425-48.106-1.314-9.498-5.786-18.274-12.698-24.917l-141.585-136.098 34.547-193.331c4.147-23.194-11.298-45.359-34.492-49.506-9.438-1.685-19.17-0.145-27.627 4.378l-173.188 92.599z" />
<glyph unicode="&#xe93c;" glyph-name="Favorite-half" d="M550.391 752.822c-4.181 8.627-11.149 15.593-19.776 19.776-21.205 10.281-46.724 1.427-57.007-19.776l-85.684-176.713-194.542-26.883c-9.497-1.312-18.276-5.785-24.92-12.697-16.33-16.989-15.796-43.997 1.193-60.33l141.586-136.098-34.549-193.327c-1.687-9.438-0.145-19.166 4.375-27.622 11.11-20.779 36.963-28.621 57.744-17.51l173.189 92.604 173.188-92.604c8.457-4.518 18.189-6.059 27.627-4.373 23.194 4.147 38.639 26.313 34.492 49.506l-34.547 193.327 141.585 136.098c6.912 6.647 11.383 15.424 12.698 24.922 3.226 23.343-13.082 44.88-36.425 48.105l-194.543 26.883-85.683 176.713zM552.235 269.495l-6.972 3.332c-10.628 4.497-21.943 6.75-33.263 6.75v356.881l47.292-97.58 3.354-6.245c13.184-22.268 35.866-37.478 61.751-41.054l107.337-14.822-78.11-75.136-4.902-5.12c-17.105-19.413-24.563-45.687-19.964-71.411l19.051-106.679-95.573 51.085z" />
<glyph unicode="&#xe93d;" glyph-name="Favorite" d="M530.615 772.599c8.627-4.183 15.595-11.15 19.776-19.776l85.683-176.713 194.543-26.883c23.343-3.226 39.65-24.763 36.425-48.106-1.314-9.498-5.786-18.274-12.698-24.917l-141.585-136.098 34.547-193.331c4.147-23.194-11.298-45.359-34.492-49.506-9.438-1.685-19.17-0.145-27.627 4.378l-173.188 92.599-173.189-92.599c-20.78-11.11-46.633-3.273-57.744 17.506-4.521 8.457-6.062 18.185-4.375 27.622l34.549 193.331-141.586 136.098c-16.989 16.329-17.522 43.337-1.193 60.326 6.644 6.912 15.423 11.385 24.92 12.697l194.542 26.883 85.684 176.713c10.283 21.203 35.802 30.057 57.007 19.776zM512 636.459l-47.292-97.58c-11.401-23.512-32.875-40.383-58.127-46.040l-6.976-1.259-107.381-14.822 78.153-75.136c18.839-18.108 28.249-43.742 25.824-69.508l-0.957-7.023-19.094-106.679 95.616 51.085c22.852 12.22 49.882 13.329 73.498 3.332l6.972-3.332 95.573-51.085-19.051 106.679c-4.599 25.724 2.859 51.998 19.964 71.411l4.902 5.12 78.11 75.136-107.337 14.822c-25.886 3.575-48.567 18.786-61.751 41.054l-3.354 6.245-47.292 97.58z" />
<glyph unicode="&#xe93e;" glyph-name="File" d="M366.327 789.333c11.316 0 22.168-4.495 30.17-12.497l60.34-60.34c8-8.001 18.854-12.497 30.17-12.497h408.994c23.565 0 42.667-19.103 42.667-42.667v-512c0-21.879-16.469-39.915-37.692-42.381l-4.975-0.286h-768c-23.564 0-42.667 19.102-42.667 42.667v597.333c0 23.564 19.103 42.667 42.667 42.667h238.327zM853.333 448h-682.667v-256h682.667v256zM348.629 704h-177.963v-170.667h682.667v85.333h-419.345l-85.359 85.333z" />
<glyph unicode="&#xe93f;" glyph-name="Flag" d="M256 874.667c23.564 0 42.667-19.103 42.667-42.667h469.333c23.565 0 42.667-19.103 42.667-42.667v-341.333c0-23.565-19.102-42.667-42.667-42.667h-469.333v-341.333c0-23.565-19.103-42.667-42.667-42.667s-42.667 19.102-42.667 42.667v768c0 23.564 19.103 42.667 42.667 42.667zM725.333 746.667h-426.667v-256h426.667v256z" />
<glyph unicode="&#xe940;" glyph-name="Food" d="M362.667 490.667c21.881 0 39.915-16.469 42.38-37.692l0.287-4.975v-341.333c0-23.565-19.103-42.667-42.667-42.667-21.881 0-39.915 16.469-42.38 37.692l-0.287 4.975v341.333c0 23.565 19.103 42.667 42.667 42.667zM362.667 746.667c21.881 0 39.915-16.471 42.38-37.691l0.287-4.976v-170.667c0-23.565-19.103-42.667-42.667-42.667-21.881 0-39.915 16.469-42.38 37.692l-0.287 4.975v170.667c0 23.564 19.103 42.667 42.667 42.667zM234.667 746.667c21.881 0 39.915-16.471 42.38-37.691l0.287-4.976v-85.333c0-23.564-19.103-42.667-42.667-42.667-21.881 0-39.915 16.471-42.38 37.691l-0.287 4.976v85.333c0 23.564 19.103 42.667 42.667 42.667zM490.667 661.333c23.565 0 42.667-19.103 42.667-42.667 0-88.422-49.335-165.372-120.556-170.406l-7.444-0.26h-85.333c-75.204 0-128 79.194-128 170.667 0 23.564 19.103 42.667 42.667 42.667s42.667-19.103 42.667-42.667c0-47.139 21.063-81.353 39.454-85.009l3.213-0.324h85.333c19.053 0 42.667 35.421 42.667 85.333 0 23.564 19.102 42.667 42.667 42.667zM490.667 746.667c21.879 0 39.915-16.471 42.381-37.691l0.286-4.976v-85.333c0-23.564-19.102-42.667-42.667-42.667-21.879 0-39.915 16.471-42.381 37.691l-0.286 4.976v85.333c0 23.564 19.102 42.667 42.667 42.667zM789.333 832c21.879 0 39.915-16.471 42.381-37.691l0.286-4.976v-682.667c0-23.565-19.102-42.667-42.667-42.667-21.879 0-39.915 16.469-42.381 37.692l-0.286 4.975v682.667c0 23.564 19.102 42.667 42.667 42.667zM763.332 823.162c18.684 14.36 45.47 10.857 59.831-7.826 13.252-17.246 11.29-41.397-3.789-56.305l-4.041-3.525-111.334-85.51v-145.109l87.501-37.696c20.1-8.649 30.153-30.908 24.030-51.371l-1.702-4.685c-8.653-20.1-30.912-30.153-51.375-24.030l-4.685 1.707-113.301 48.759c-13.918 5.99-23.479 18.829-25.429 33.579l-0.371 5.615v194.184c0 11.359 4.523 22.165 12.433 30.107l4.233 3.721 128 98.386z" />
<glyph unicode="&#xe941;" glyph-name="Gallery" d="M896 874.667c23.565 0 42.667-19.103 42.667-42.667v-768c0-23.565-19.102-42.667-42.667-42.667h-768c-23.564 0-42.667 19.102-42.667 42.667v768c0 23.564 19.103 42.667 42.667 42.667h768zM853.333 789.333h-682.667v-682.667h682.667v682.667zM356.336 527.846c14.93 12.716 36.377 13.494 52.090 2.505l4.134-3.29 457.818-412.484-57.118-63.394-430.071 387.473-227.525-193.805-55.33 64.964 256 218.031zM667.511 480.107c14.75 12.911 36.177 13.982 52.036 3.217l4.177-3.23 189.133-165.687-56.23-64.188-161.033 141.077-113.442-99.302-56.201 64.209 141.559 123.904zM640 576c35.345 0 64 28.654 64 64s-28.655 64-64 64c-35.345 0-64-28.654-64-64s28.655-64 64-64z" />
<glyph unicode="&#xe942;" glyph-name="Geolocalisation" d="M512 832c164.949 0 298.667-133.718 298.667-298.667 0-98.496-79.868-234.274-239.603-407.343l-28.894-30.78-0.747-0.73c-15.753-15.002-39.974-15.59-56.388-2.172l-3.93 3.648-14.281 15.104c-168.994 180.207-253.491 320.964-253.491 422.272 0 164.949 133.718 298.667 298.667 298.667zM512 746.667c-117.821 0-213.333-95.513-213.333-213.333 0-68.924 66.897-184.299 204.395-335.727l8.939-9.745 7.415 8.085c134.391 147.767 201.89 261.201 205.743 331.149l0.175 6.238c0 117.821-95.514 213.333-213.333 213.333zM512 618.667c47.13 0 85.333-38.205 85.333-85.333 0-47.13-38.204-85.333-85.333-85.333s-85.333 38.204-85.333 85.333c0 47.128 38.204 85.333 85.333 85.333z" />
<glyph unicode="&#xe943;" glyph-name="Gift" d="M896 657.944c23.565 0 42.667-19.103 42.667-42.667v-170.665c0-23.565-19.102-42.667-42.667-42.667h-768c-23.564 0-42.667 19.102-42.667 42.667v170.665c0 23.564 19.103 42.667 42.667 42.667h768zM853.333 572.629h-682.667v-85.333h682.667v85.333zM853.333 490.667c23.565 0 42.667-17.51 42.667-39.113v-391.108c0-21.602-19.102-39.113-42.667-39.113h-682.667c-23.564 0-42.667 17.51-42.667 39.113v391.108c0 21.602 19.103 39.113 42.667 39.113h682.667zM810.667 405.333h-597.333v-298.667h597.333v298.667zM512 661.333c21.879 0 39.915-15.373 42.381-35.178l0.286-4.644v-517.69c0-21.99-19.102-39.821-42.667-39.821-21.879 0-39.915 15.373-42.381 35.179l-0.286 4.642v517.69c0 21.993 19.102 39.822 42.667 39.822zM458.249 824.381c79.049-51.336 111.919-141.014 73.417-200.301-38.498-59.288-133.795-65.734-212.845-14.398s-111.921 141.014-73.42 200.302c38.502 59.287 133.797 65.734 212.848 14.398zM411.772 752.815c-43.267 28.098-85.35 25.251-94.804 10.693s5.062-54.161 48.329-82.259c43.267-28.098 85.35-25.251 94.804-10.693s-5.060 54.161-48.329 82.259zM574.818 824.381c-79.049-51.336-111.919-141.014-73.417-200.301s133.794-65.734 212.847-14.398c79.049 51.336 111.919 141.014 73.417 200.302-38.498 59.287-133.794 65.734-212.847 14.398zM621.295 752.815c43.268 28.098 85.35 25.251 94.805 10.693s-5.060-54.161-48.329-82.259c-43.268-28.098-85.35-25.251-94.805-10.693s5.065 54.161 48.329 82.259z" />
<glyph unicode="&#xe944;" glyph-name="Health" d="M640 874.667c23.565 0 42.667-19.103 42.667-42.667v-213.333h213.333c23.565 0 42.667-19.103 42.667-42.667v-256c0-23.565-19.102-42.667-42.667-42.667h-213.333v-213.333c0-23.565-19.102-42.667-42.667-42.667h-256c-23.564 0-42.667 19.102-42.667 42.667v213.333h-213.333c-23.564 0-42.667 19.102-42.667 42.667v256c0 23.564 19.103 42.667 42.667 42.667h213.333v213.333c0 23.564 19.103 42.667 42.667 42.667h256zM597.333 789.333h-170.667v-256h-256v-170.667h256v-256h170.667v256h256v170.667h-256v256z" />
<glyph unicode="&#xe945;" glyph-name="Home" d="M532.749 869.181c9.131-5.069 18.551-10.416 28.262-16.041l30.016-17.706 15.663-9.478 32.636-20.204 34.385-21.87 17.847-11.559 46.537-30.72 9.634-6.456c84.919-57.040 145.062-105.841 180.429-146.403 6.775-7.77 10.509-17.731 10.509-28.040v-496.704c0-23.565-19.102-42.667-42.667-42.667h-768c-23.564 0-42.667 19.102-42.667 42.667v496.745c0 10.286 3.714 20.226 10.462 27.989 35.331 40.653 95.495 89.457 180.49 146.414l37.903 25.161c6.171 4.056 12.269 8.043 18.293 11.961l35.27 22.682 33.514 21.030 16.099 9.895 30.883 18.55c10.001 5.908 19.708 11.54 29.124 16.897l13.905 7.829c12.89 7.18 28.574 7.19 41.472 0.027zM534.263 769.923l-22.221 12.925-6.323-3.653c-15.484-8.984-31.787-18.723-48.9-29.215l-35.311-21.987c-18.197-11.495-37.204-23.742-57.018-36.739l-40.702-26.994-26.963-18.388-27.094-19.222c-38.817-28.166-69.415-53.295-91.58-74.985l-7.485-7.494v-437.504h682.667v437.376l-0.96 1.006c-25.037 25.648-62.682 56.524-112.546 91.898l-25.946 18.059-34.313 23.055-39.556 25.993c-19.243 12.493-37.679 24.229-55.305 35.208l-34.172 20.947-16.273 9.715zM639.74 402.381c23.71 0 42.931-19.221 42.931-42.935 0-23.71-19.221-42.935-42.931-42.935h-255.465c-23.712 0-42.935 19.226-42.935 42.935 0 23.714 19.223 42.935 42.935 42.935h255.465z" />
<glyph unicode="&#xe946;" glyph-name="Housing" d="M483.516 865.263c14.144 11.362 33.728 12.431 48.896 3.19l4.412-3.082 428.433-341.334c18.428-14.682 21.466-41.527 6.784-59.955-13.555-17.011-37.47-20.911-55.565-9.86l-4.395 3.076-401.788 320.090-398.237-319.983c-16.957-13.623-41.145-12.173-56.373 2.577l-3.611 3.964c-13.622 16.96-12.175 41.148 2.578 56.375l3.964 3.61 424.902 341.333zM768 405.333h-170.667c-23.565 0-42.667-19.102-42.667-42.667v-298.667c0-23.565 19.102-42.667 42.667-42.667h170.667c23.565 0 42.667 19.102 42.667 42.667v298.667c0 23.565-19.102 42.667-42.667 42.667zM725.333 320v-213.333h-85.333v213.333h85.333zM426.667 490.667h-170.667c-23.564 0-42.667-19.102-42.667-42.667v-384c0-23.565 19.103-42.667 42.667-42.667h170.667c23.565 0 42.667 19.102 42.667 42.667v384c0 23.565-19.102 42.667-42.667 42.667zM384 405.333v-298.667h-85.333v298.667h85.333z" />
<glyph unicode="&#xe947;" glyph-name="Idea" d="M512 704c141.385 0 256-114.615 256-256 0-75.802-32.943-143.906-85.295-190.78l-0.038-65.22c0-23.565-19.102-42.667-42.667-42.667h-256c-23.564 0-42.667 19.102-42.667 42.667l0.006 65.182c-52.376 46.874-85.339 114.995-85.339 190.818 0 141.385 114.615 256 256 256zM512 618.667c-94.257 0-170.667-76.41-170.667-170.667 0-45.99 18.192-88.875 49.911-120.606l7.002-6.626 28.428-25.442-0.009-60.659h170.667l0.060 60.706 28.39 25.421c36.011 32.243 56.883 77.943 56.883 127.206 0 94.257-76.412 170.667-170.667 170.667zM170.667 490.667c23.564 0 42.667-19.102 42.667-42.667 0-21.879-16.471-39.915-37.691-42.381l-4.976-0.286h-42.667c-23.564 0-42.667 19.102-42.667 42.667 0 21.879 16.471 39.915 37.691 42.381l4.976 0.286h42.667zM896 490.667c23.565 0 42.667-19.102 42.667-42.667 0-21.879-16.469-39.915-37.692-42.381l-4.975-0.286h-42.667c-23.565 0-42.667 19.102-42.667 42.667 0 21.879 16.469 39.915 37.692 42.381l4.975 0.286h42.667zM245.732 752.804l4.019-3.549 30.17-30.17c16.662-16.662 16.662-43.677 0-60.34-15.38-15.38-39.582-16.564-56.32-3.549l-4.019 3.549-30.17 30.17c-16.662 16.662-16.662 43.677 0 60.34 15.38 15.38 39.582 16.564 56.32 3.549zM834.59 749.255c15.377-15.38 16.563-39.582 3.546-56.32l-3.546-4.019-30.17-30.17c-16.666-16.662-43.678-16.662-60.343 0-15.377 15.38-16.563 39.582-3.546 56.32l3.546 4.019 30.17 30.17c16.666 16.662 43.678 16.662 60.343 0zM512 874.667c21.879 0 39.915-16.471 42.381-37.691l0.286-4.976v-42.667c0-23.564-19.102-42.667-42.667-42.667-21.879 0-39.915 16.471-42.381 37.691l-0.286 4.976v42.667c0 23.564 19.102 42.667 42.667 42.667zM576 106.667c23.565 0 42.667-19.102 42.667-42.667 0-21.879-16.469-39.915-37.692-42.381l-4.975-0.286h-128c-23.564 0-42.667 19.102-42.667 42.667 0 21.879 16.471 39.915 37.692 42.381l4.975 0.286h128z" />
<glyph unicode="&#xe948;" glyph-name="Identity-card" d="M896 746.667c23.565 0 42.667-19.103 42.667-42.667v-512c0-23.565-19.102-42.667-42.667-42.667h-768c-23.564 0-42.667 19.102-42.667 42.667v512c0 23.564 19.103 42.667 42.667 42.667h768zM853.333 661.333h-682.667v-426.667h682.667v426.667zM362.667 459.2c68.169 0 128-51.9 128-119.765 0-67.87-256-67.87-256 0 0 67.866 59.832 119.765 128 119.765zM640 405.333c23.565 0 42.667-19.102 42.667-42.667 0-21.879-16.469-39.915-37.692-42.381l-4.975-0.286h-42.667c-23.565 0-42.667 19.102-42.667 42.667 0 21.879 16.469 39.915 37.692 42.381l4.975 0.286h42.667zM362.667 605.867c35.346 0 64-28.654 64-64 0-35.345-28.654-64-64-64s-64 28.655-64 64c0 35.346 28.654 64 64 64zM725.333 576c23.565 0 42.667-19.103 42.667-42.667 0-21.879-16.469-39.915-37.692-42.381l-4.975-0.286h-128c-23.565 0-42.667 19.102-42.667 42.667 0 21.881 16.469 39.915 37.692 42.38l4.975 0.287h128z" />
<glyph unicode="&#xe949;" glyph-name="Info" d="M512 874.667c235.639 0 426.667-191.025 426.667-426.667 0-235.639-191.027-426.667-426.667-426.667-235.642 0-426.667 191.027-426.667 426.667 0 235.642 191.025 426.667 426.667 426.667zM512 789.333c-188.513 0-341.333-152.82-341.333-341.333s152.82-341.333 341.333-341.333c188.514 0 341.333 152.819 341.333 341.333s-152.819 341.333-341.333 341.333zM512 533.333c23.565 0 42.667-19.102 42.667-42.667v-213.333c0-23.565-19.102-42.667-42.667-42.667s-42.667 19.102-42.667 42.667v213.333c0 23.565 19.102 42.667 42.667 42.667zM512 661.333c23.565 0 42.667-19.103 42.667-42.667s-19.102-42.667-42.667-42.667c-23.565 0-42.667 19.103-42.667 42.667s19.102 42.667 42.667 42.667z" />
<glyph unicode="&#xe94a;" glyph-name="Instant-payment" d="M512.427 874.667c235.644 0 426.667-191.025 426.667-426.667 0-235.639-191.023-426.667-426.667-426.667h-0.427c-23.565 0-42.667 19.102-42.667 42.667s19.102 42.667 42.667 42.667c188.514 0 341.333 152.819 341.333 341.333 0 188.428-152.683 341.195-341.077 341.333-125.071 0-238.345-67.998-298.224-175.453l-6.589-12.42-6.070-12.684-4.225-9.719-1.294-3.153c-1.677-4.145-3.272-8.325-4.784-12.536-7.963-22.178-32.397-33.7-54.575-25.738-22.178 7.963-33.701 32.397-25.738 54.575l2.918 7.879 4.692 11.764 5.288 12.165 2.463 5.3c0.721 2.79 1.739 5.548 3.064 8.235 71.201 144.279 218.435 237.118 382.817 237.118h0.427zM341.333 106.667c23.564 0 42.667-19.102 42.667-42.667 0-21.879-16.471-39.915-37.691-42.381l-4.976-0.286h-128c-23.564 0-42.667 19.102-42.667 42.667 0 21.879 16.471 39.915 37.691 42.381l4.976 0.286h128zM341.333 277.333c23.564 0 42.667-19.102 42.667-42.667 0-21.879-16.471-39.915-37.691-42.381l-4.976-0.286h-42.667c-23.564 0-42.667 19.102-42.667 42.667 0 21.879 16.471 39.915 37.691 42.381l4.976 0.286h42.667zM512 661.333c23.565 0 42.667-19.103 42.667-42.667v-168.96l103.501-72.461c19.302-13.517 23.991-40.124 10.475-59.426s-40.119-23.991-59.422-10.475l-139.802 97.89-0.085 213.431c0 23.564 19.102 42.667 42.667 42.667zM341.333 448c23.564 0 42.667-19.102 42.667-42.667 0-21.879-16.471-39.915-37.691-42.381l-4.976-0.286h-213.333c-23.564 0-42.667 19.102-42.667 42.667 0 21.879 16.471 39.915 37.691 42.381l4.976 0.286h213.333z" />
<glyph unicode="&#xe94b;" glyph-name="Insurance" d="M512 874.667c213.478 0 390.34-156.783 421.722-361.485 0.713-4.668 1.408-10.97 2.082-18.901 1.993-23.479-15.424-44.13-38.903-46.127-1.143-0.098-2.291-0.149-3.443-0.154h-338.825l0.034-298.667c0-70.694-57.306-128-128-128-70.692 0-128 57.306-128 128 0 23.565 19.103 42.667 42.667 42.667 21.881 0 39.915-16.469 42.38-37.692l0.287-4.975c0-23.565 19.103-42.667 42.667-42.667 21.879 0 39.915 16.469 42.381 37.692l0.286 4.975-0.034 298.667h-338.758c-23.564 0.111-42.578 19.298-42.469 42.863 0.006 1.22 0.064 2.441 0.175 3.657 0.916 10.065 1.954 18.522 3.114 25.357 34.17 201.417 209.493 354.79 420.638 354.79zM408.559 773.405l-5.709-1.896c-106.243-35.833-189.077-122.534-219.536-231.135l-1.895-7.040 143.375-0.021c13.259 92.809 41.138 172.992 83.764 240.093zM505.399 762.393c-47.936-59.982-79.399-136.035-94.304-229.059h188.623c-14.916 93.115-46.426 169.224-94.319 229.059zM599.181 778.099l6.259-9.775c40.836-66.056 67.657-144.535 80.58-235.012l156.518 0.021-1.852 7.040c-32.529 115.98-124.791 206.982-241.506 237.725z" />
<glyph unicode="&#xe94c;" glyph-name="Justice" d="M512 874.667c21.879 0 39.915-16.471 42.381-37.691l0.286-4.976v-85.333h298.667c23.565 0 42.667-19.103 42.667-42.667 0-21.881-16.469-39.915-37.692-42.38l-4.975-0.287h-298.667v-554.667h85.333c23.565 0 42.667-19.102 42.667-42.667 0-21.879-16.469-39.915-37.692-42.381l-4.975-0.286h-256c-23.564 0-42.667 19.102-42.667 42.667 0 21.879 16.471 39.915 37.691 42.381l4.976 0.286h85.333v554.667h-298.667c-23.564 0-42.667 19.103-42.667 42.667 0 21.881 16.471 39.915 37.691 42.38l4.976 0.287h298.667v85.333c0 23.564 19.102 42.667 42.667 42.667zM261.238 606.279l2.071-4.533 95.533-245.658c8.319-21.389-1.775-45.53-22.844-54.63-37.485-16.192-74.97-24.29-112.455-24.29s-74.969 8.094-112.454 24.29c-19.566 8.452-29.667 29.871-24.349 50.014l1.504 4.621 95.533 245.654c4.336 11.149 13.152 19.965 24.301 24.301 20.393 7.93 43.171-0.884 53.159-19.768zM838.093 606.279l2.069-4.533 95.535-245.658c8.316-21.389-1.775-45.53-22.844-54.63-37.487-16.192-74.97-24.29-112.457-24.29-37.483 0-74.97 8.094-112.452 24.29-19.567 8.452-29.67 29.871-24.35 50.014l1.506 4.621 95.531 245.654c4.335 11.149 13.154 19.965 24.303 24.301 20.39 7.93 43.17-0.884 53.158-19.768zM223.543 468.565l-39.509-101.547 6.339-1.387c7.444-1.399 14.833-2.325 22.18-2.786l10.99-0.346c10.962 0 22.004 1.033 33.17 3.127l6.296 1.391-39.467 101.547zM800.397 468.565l-39.509-101.547 6.34-1.387c7.445-1.399 14.831-2.325 22.178-2.786l10.991-0.346c10.961 0 22.003 1.033 33.169 3.127l6.298 1.391-39.467 101.547z" />
<glyph unicode="&#xe94d;" glyph-name="Launch" d="M512 789.333c23.565 0 42.667-19.102 42.667-42.667s-19.102-42.667-42.667-42.667h-341.333v-597.333h597.333v340.979c0 23.565 19.102 42.667 42.667 42.667s42.667-19.102 42.667-42.667v-345.719c0-41.387-30.076-76.873-70.357-80.32l-6.443-0.273h-614.4c-41.303 0-73.442 33.417-76.553 74.112l-0.247 6.481v606.814c0 41.388 30.074 76.874 70.358 80.319l6.442 0.274h349.867zM895.962 874.545c23.565 0 42.667-19.103 42.667-42.667v-213.333c0-23.564-19.102-42.667-42.667-42.667-23.561 0.008-42.662 19.105-42.671 42.667l-0.021 110.037-198.643-198.735c-15.377-15.386-39.578-16.576-56.316-3.563l-4.023 3.554c-16.657 16.664-16.661 43.677-0.009 60.344l198.959 199.029h-110.609c-23.561 0-42.667 19.102-42.667 42.667s19.106 42.667 42.667 42.667h213.333z" />
<glyph unicode="&#xe94e;" glyph-name="Linkedin" d="M262.4 764.445c0-49.103-39.467-88.889-88.178-88.889s-88.177 39.787-88.177 88.889c0 49.067 39.467 88.889 88.177 88.889s88.178-39.822 88.178-88.889zM263.111 604.445h-177.778v-568.89h177.778v568.89zM546.914 604.445h-176.639v-568.89h176.677v298.633c0 166.046 214.362 179.627 214.362 0v-298.633h177.353v360.213c0 280.179-317.227 269.975-391.753 132.053v76.624z" />
<glyph unicode="&#xe94f;" glyph-name="List" d="M384 704h426.667c23.565 0 42.667-19.103 42.667-42.667s-19.102-42.667-42.667-42.667h-426.667c-23.564 0-42.667 19.103-42.667 42.667s19.103 42.667 42.667 42.667zM384 490.667h426.667c23.565 0 42.667-19.102 42.667-42.667s-19.102-42.667-42.667-42.667h-426.667c-23.564 0-42.667 19.102-42.667 42.667s19.103 42.667 42.667 42.667zM384 277.333h426.667c23.565 0 42.667-19.102 42.667-42.667s-19.102-42.667-42.667-42.667h-426.667c-23.564 0-42.667 19.102-42.667 42.667s19.103 42.667 42.667 42.667zM213.333 618.667c23.564 0 42.667 19.103 42.667 42.667s-19.103 42.667-42.667 42.667c-23.564 0-42.667-19.103-42.667-42.667s19.103-42.667 42.667-42.667zM213.333 405.333c23.564 0 42.667 19.102 42.667 42.667s-19.103 42.667-42.667 42.667c-23.564 0-42.667-19.102-42.667-42.667s19.103-42.667 42.667-42.667zM213.333 192c23.564 0 42.667 19.102 42.667 42.667s-19.103 42.667-42.667 42.667c-23.564 0-42.667-19.102-42.667-42.667s19.103-42.667 42.667-42.667z" />
<glyph unicode="&#xe950;" glyph-name="Loan" d="M450.112 823.038l12.301-4.875 22.306-9.324 5.649-2.454 5.67-2.503 22.929-10.491 17.438-8.363 17.617-8.775 23.744-12.326c15.919-8.451 32-17.364 48.188-26.71l12.062-7.032 17.775-10.629 17.391-10.715 22.545-14.401 16.41-10.871 15.962-10.919 20.548-14.612 5.005-3.66 4.949-3.662 19.226-14.657c112.226-87.661 174.327-175.084 145.899-235.879l-2.931-5.623-9.152-15.949c15.782-15.535 25.084-32.977 26.752-52.275l0.273-6.332v-149.333c0-55.829-75.145-92.625-193.003-111.885l-22.592-3.405-23.543-2.995-24.452-2.59-25.31-2.189-26.121-1.783-26.884-1.382c-4.544-0.196-9.114-0.38-13.713-0.542l-27.942-0.789c-4.71-0.098-9.451-0.179-14.217-0.243l-28.89-0.196-28.89 0.196-28.271 0.589-13.888 0.444-27.247 1.182c-4.481 0.235-8.931 0.478-13.35 0.742l-26.121 1.783-25.31 2.189-24.451 2.59-23.545 2.995-22.591 3.405c-114.176 18.658-188.265 53.773-192.784 106.705l-0.219 5.18v149.333l0.272 6.332c5.113 59.162 82.018 100.941 197.347 123.499l-7.997 5.589-19.881 14.468-18.892 14.37-17.862 14.242c-89.551 73.247-136.156 140.702-113.603 188.803l2.4 4.594 74.667 129.327 3.402 5.349c37.236 53.299 138.591 45.516 264.926-3.535zM341.333 180.907l0.018-43.776c39.448-4.506 82.735-7.454 128.003-8.597l-0.021 42.731-12.42 0.363-26.726 1.199-19.646 1.212-19.281 1.476-25.104 2.377-12.279 1.365-12.543 1.651zM682.667 180.907l-12.544-1.651-12.279-1.365-25.101-2.377-19.285-1.476-19.644-1.212-26.726-1.199c-4.109-0.145-8.235-0.273-12.382-0.388l-0.017-42.701c45.269 1.143 88.559 4.087 128.004 8.597l-0.026 43.772zM853.402 223.817c-24.247-10.935-53.001-20.237-85.389-27.857l0.073-45.325c2.086 0.444 4.147 0.887 6.187 1.344 31.629 7.027 56.269 15.13 71.706 23.245l3.226 1.771 4.13 2.633 0.068 44.19zM170.643 223.799l0.024-44.215 4.13-2.59 3.225-1.771c15.439-8.115 40.077-16.218 71.706-23.245l6.273-1.323 0.027 45.295c-32.383 7.616-61.136 16.913-85.385 27.849zM251.89 354.313c-6.344-1.762-12.32-3.563-17.926-5.376l-8.132-2.722-14.596-5.385-12.369-5.158-10.135-4.736-2.184-1.097-2.044-1.058-6.771-3.746-4.521-2.854-2.263-1.766-0.283-0.414 0.071-0.166 0.212-0.247 2.263-1.766 7.625-4.629 7.894-4.126 10.135-4.736 12.369-5.158 14.596-5.385c7.854-2.722 16.541-5.457 26.057-8.098 67.544-18.765 160.515-29.687 260.11-29.687 41.626 0 82.099 1.907 120.038 5.5-3.004 1.088-5.995 2.202-8.998 3.337l-21.269 8.35-21.888 9.173-22.473 9.984-23.010 10.761-23.514 11.516-23.974 12.245c-4.032 2.099-8.081 4.228-12.147 6.387l-24.593 13.291c-4.13 2.27-8.273 4.57-12.433 6.895l-25.117 14.276-18.7 10.97c-53.607-4.979-102.233-13.312-142.031-24.371zM710.985 372.463l-22.601-39.292 6.029-1.929c30.903-9.728 56.294-15.027 73.719-15.723l3.682-0.077 4.89 0.213 22.153 38.238c-26.466 2.65-56.017 8.973-87.872 18.569zM513.894 457.707l-21.367-36.971c39.774-21.649 78.737-40.738 115.153-56.555l21.862 37.918-11.686 4.843-5.645 2.453-5.67 2.505-22.933 10.492-17.434 8.363-17.621 8.772-23.744 12.326c-3.631 1.929-7.27 3.878-10.914 5.854zM264.323 779.383l-5.341-0.209-2.843-0.398-0.453-0.218-0.022-0.18 0.059-0.322 1.077-2.661 4.291-7.82 4.774-7.52 6.409-9.169 8.133-10.651 9.947-11.965c5.442-6.283 11.597-12.995 18.517-20.042 49.114-50.020 124.167-105.966 210.418-155.763 86.251-49.796 172.228-86.822 240.107-104.345 6.374-1.647 12.45-3.072 18.21-4.305l8.405-1.711 15.334-2.633 13.291-1.719 11.145-0.964 2.441-0.141 2.295-0.111 7.74-0.137 5.342 0.209 2.842 0.397 0.452 0.218 0.021 0.179-0.055 0.324-1.079 2.662-4.292 7.817-4.77 7.522-6.409 9.169-8.137 10.65-9.946 11.964c-5.44 6.285-11.597 12.996-18.517 20.045-49.114 50.019-124.169 105.965-210.419 155.762s-172.227 86.823-240.103 104.346c-6.375 1.646-12.452 3.072-18.213 4.306l-8.403 1.709-15.335 2.632-13.291 1.718-11.145 0.965-2.439 0.143-2.298 0.108-7.738 0.139zM333.94 572.765l-21.872-37.919c30.659-22.701 65.108-45.929 102.028-68.666l6.342 0.41 19.533 33.826-10.573 6.524-22.548 14.4-16.409 10.871-15.96 10.92-20.551 14.612-5.004 3.66-4.948 3.662-10.038 7.7zM207.564 695.256l-22.087-38.303 2.281-4.307 1.907-3.148c9.315-14.745 26.6-34.082 50.476-55.983l4.772-4.281 22.671 39.213c-24.237 22.786-44.489 45.215-60.021 66.809z" />
<glyph unicode="&#xe951;" glyph-name="Lock" d="M512 874.667c138.172 0 250.778-109.464 255.825-246.403l0.175-9.597v-42.667h47.407c20.945 0 37.926-19.103 37.926-42.667v-469.333c0-23.565-16.981-42.667-37.926-42.667h-606.814c-20.946 0-37.926 19.102-37.926 42.667v469.333c0 23.564 16.98 42.667 37.926 42.667h47.407v42.667c0 141.385 114.615 256 256 256zM768 490.667h-512v-384h512v384zM512 405.333c35.345 0 64-28.655 64-64 0-25.532-14.95-47.573-36.578-57.843l15.245-91.49h-85.333l15.287 91.469c-21.649 10.261-36.621 32.316-36.621 57.865 0 35.345 28.655 64 64 64zM512 789.333c-91.401 0-166.019-71.849-170.458-162.149l-0.209-8.518v-42.667h341.333v42.667c0 94.257-76.412 170.667-170.667 170.667z" />
<glyph unicode="&#xe952;" glyph-name="Log-out" d="M128 149.333c0-23.565 19.103-42.667 42.667-42.667h128c23.564 0 42.667 19.102 42.667 42.667s-19.103 42.667-42.667 42.667h-85.333v512h85.333c23.564 0 42.667 19.103 42.667 42.667s-19.103 42.667-42.667 42.667h-128c-21.881 0-39.915-16.471-42.38-37.691l-0.287-4.976v-597.333zM896 450.517c-0.593 10.065-4.732 19.964-12.425 27.652l-181.018 181.020c-16.661 16.662-43.678 16.662-60.339 0s-16.661-43.677 0-60.34l108.203-108.208-359.027 0.026c-21.881 0-39.915-16.469-42.38-37.692l-0.287-4.975c0-23.565 19.102-42.667 42.667-42.667l359.027-0.026-108.203-108.156c-15.381-15.381-16.563-39.582-3.55-56.32l3.55-4.019c16.661-16.666 43.678-16.666 60.339 0l181.018 181.018c7.693 7.689 11.831 17.587 12.425 27.652v5.035z" />
<glyph unicode="&#xe953;" glyph-name="Machine" d="M810.667 874.667c23.565 0 42.667-19.103 42.667-42.667v-213.333c0-23.564-19.102-42.667-42.667-42.667h-21.333v-85.333c0-23.565-19.102-42.667-42.667-42.667s-42.667 19.102-42.667 42.667v85.333h-21.333c-23.565 0-42.667 19.103-42.667 42.667h-384v-384h-85.333v384h-42.667c-23.564 0-42.667 19.103-42.667 42.667v128c0 23.564 19.103 42.667 42.667 42.667h512c0 23.564 19.102 42.667 42.667 42.667h128zM810.667 320c23.565 0 42.667-19.102 42.667-42.667v-42.667h-213.333v42.667c0 23.565 19.102 42.667 42.667 42.667h128zM768 789.333h-42.667v-128h42.667v128zM640 746.667h-469.333v-42.667h469.333v42.667zM896 234.667c23.565 0 42.667-19.102 42.667-42.667v-128c0-23.565-19.102-42.667-42.667-42.667h-768c-23.564 0-42.667 19.102-42.667 42.667v128c0 23.565 19.103 42.667 42.667 42.667h768zM853.333 149.333h-682.667v-42.667h682.667v42.667z" />
<glyph unicode="&#xe954;" glyph-name="Mail" d="M896 746.667c23.565 0 42.667-19.103 42.667-42.667v-512c0-23.565-19.102-42.667-42.667-42.667h-768c-23.564 0-42.667 19.102-42.667 42.667v512c0 23.564 19.103 42.667 42.667 42.667h768zM853.333 630.357l-312.631-284.267c-16.273-14.793-41.131-14.793-57.404 0l-312.631 284.224v-395.648h682.667v395.691zM760.576 661.333h-497.195l248.576-226.005 248.619 226.005z" />
<glyph unicode="&#xe955;" glyph-name="Map" d="M874.667 832l-6.827-1.28-213.171-82.634c-9.468-3.67-19.934-3.843-29.517-0.489l-227.322 79.563c-8.963 3.137-18.717 3.194-27.716 0.163l-226.754-76.389c-8.96-2.987-15.36-10.667-15.36-20.48v-645.12c0-11.947 9.387-21.333 21.333-21.333l6.827 1.28 213.172 82.633c9.467 3.669 19.933 3.844 29.516 0.491l227.323-79.561c8.96-3.14 18.714-3.196 27.716-0.166l226.752 76.39c8.96 2.987 15.36 10.667 15.36 20.48v645.12c0 11.947-9.387 21.333-21.333 21.333zM426.667 726.613l170.667-59.733v-497.493l-170.667 59.733v497.493zM213.333 684.373l128 43.093v-499.2l-128-49.493v505.6zM810.667 211.627l-128-43.093v498.773l128 49.493v-505.173z" />
<glyph unicode="&#xe956;" glyph-name="Menu" d="M128 746.667h768c23.565 0 42.667-19.103 42.667-42.667s-19.102-42.667-42.667-42.667h-768c-23.564 0-42.667 19.103-42.667 42.667s19.103 42.667 42.667 42.667zM128 490.667h768c23.565 0 42.667-19.102 42.667-42.667s-19.102-42.667-42.667-42.667h-768c-23.564 0-42.667 19.102-42.667 42.667s19.103 42.667 42.667 42.667zM128 234.667h768c23.565 0 42.667-19.102 42.667-42.667s-19.102-42.667-42.667-42.667h-768c-23.564 0-42.667 19.102-42.667 42.667s19.103 42.667 42.667 42.667z" />
<glyph unicode="&#xe957;" glyph-name="Microphone-off" d="M512 874.667c76.045 0 140.476-49.737 162.534-118.455l78.827 78.821c16.661 16.662 43.678 16.662 60.339 0s16.661-43.677 0-60.34l-131.076-131.066 0.043-110.293c0-94.255-76.412-170.667-170.667-170.667-31.633 0-61.257 8.606-86.655 23.603l-30.996-30.925c33.725-22.336 74.169-35.345 117.651-35.345 117.82 0 213.333 95.514 213.333 213.333 0 23.564 19.102 42.667 42.667 42.667s42.667-19.103 42.667-42.667c0-150.447-111.241-274.914-255.957-295.637l-0.043-131.029h42.667c21.879 0 39.915-16.469 42.381-37.692l0.286-4.975c0-21.879-16.469-39.915-37.692-42.381l-4.975-0.286h-170.667c-23.564 0-42.666 19.102-42.666 42.667 0 21.879 16.471 39.915 37.691 42.381l4.975 0.286h42.667v131.025c-50.583 7.236-97.078 27.145-136.164 56.41l-62.528-62.468c-16.662-16.661-43.677-16.661-60.34 0-16.662 16.666-16.662 43.678 0 60.339l62.487 62.502c-37.339 49.86-59.455 111.774-59.455 178.859 0 23.564 19.102 42.667 42.667 42.667s42.667-19.103 42.667-42.667c0-43.482 13.009-83.925 35.346-117.649l30.925 30.993c-14.999 25.399-23.605 55.023-23.605 86.656v170.667c0 94.257 76.41 170.667 170.666 170.667zM597.291 558.293l-107.349-107.413c7.036-1.877 14.43-2.88 22.059-2.88 44.988 0 81.843 34.812 85.099 78.963l0.235 6.37-0.043 24.96zM512 789.333c-44.988 0-81.843-34.811-85.099-78.965l-0.235-6.368v-170.667c0-7.629 1.003-15.023 2.88-22.059l167.744 167.765 0.043 24.96c0 47.128-38.204 85.333-85.333 85.333z" />
<glyph unicode="&#xe958;" glyph-name="Microphone-on" d="M768 576c23.565 0 42.667-19.103 42.667-42.667 0-150.447-111.241-274.914-255.957-295.637l-0.043-131.029h42.667c21.879 0 39.915-16.469 42.381-37.692l0.286-4.975c0-21.879-16.469-39.915-37.692-42.381l-4.975-0.286h-170.667c-23.564 0-42.667 19.102-42.667 42.667 0 21.879 16.471 39.915 37.691 42.381l4.976 0.286h42.667v131.025c-144.738 20.702-256 145.178-256 295.642 0 23.564 19.103 42.667 42.667 42.667s42.667-19.103 42.667-42.667c0-117.82 95.513-213.333 213.333-213.333s213.333 95.514 213.333 213.333c0 23.564 19.102 42.667 42.667 42.667zM512 874.667c94.255 0 170.667-76.41 170.667-170.667v-170.667c0-94.255-76.412-170.667-170.667-170.667-94.257 0-170.667 76.412-170.667 170.667v170.667c0 94.257 76.41 170.667 170.667 170.667zM512 789.333c-44.988 0-81.843-34.811-85.099-78.965l-0.235-6.368v-170.667c0-47.13 38.204-85.333 85.333-85.333 44.988 0 81.843 34.812 85.099 78.963l0.235 6.37v170.667c0 47.128-38.204 85.333-85.333 85.333z" />
<glyph unicode="&#xe959;" glyph-name="Mobile" d="M768 874.667c23.565 0 42.667-19.103 42.667-42.667v-768c0-23.565-19.102-42.667-42.667-42.667h-512c-23.564 0-42.667 19.102-42.667 42.667v768c0 23.564 19.103 42.667 42.667 42.667h512zM725.333 789.333h-426.667v-682.667h426.667v682.667zM554.667 234.833c23.565 0 42.667-19.106 42.667-42.667 0-21.884-16.469-39.915-37.692-42.381l-4.975-0.286h-85.333c-23.565 0-42.667 19.102-42.667 42.667 0 21.879 16.469 39.915 37.692 42.377l4.975 0.29h85.333z" />
<glyph unicode="&#xe95a;" glyph-name="More" d="M512 64c47.13 0 85.333 38.204 85.333 85.333s-38.204 85.333-85.333 85.333c-47.13 0-85.333-38.204-85.333-85.333s38.204-85.333 85.333-85.333zM512 362.667c47.13 0 85.333 38.204 85.333 85.333s-38.204 85.333-85.333 85.333c-47.13 0-85.333-38.204-85.333-85.333s38.204-85.333 85.333-85.333zM512 661.333c47.13 0 85.333 38.205 85.333 85.333s-38.204 85.333-85.333 85.333c-47.13 0-85.333-38.205-85.333-85.333s38.204-85.333 85.333-85.333z" />
<glyph unicode="&#xe95b;" glyph-name="Motorbike" d="M616.508 832l70.682-213.333h28.070c69.367 0 137.779-16.15 199.821-47.171 21.077-10.538 29.619-36.167 19.081-57.243s-36.164-29.619-57.242-19.081c-45.632 22.814-95.522 35.686-146.377 37.837l-15.066 0.324 42.5-128.29c3.319 0.192 6.66 0.29 10.022 0.29 94.255 0 170.667-76.412 170.667-170.667s-76.412-170.667-170.667-170.667c-94.255 0-170.667 76.412-170.667 170.667 0 60.698 31.684 113.993 79.415 144.247l-35.682 107.614-93.158-145.203c-13.713-21.376-42.586-25.83-62.033-10.701l-4.015 3.546-50.97 50.897-38.351-47.991c21.429-28.527 34.127-63.983 34.127-102.409 0-94.255-76.41-170.667-170.667-170.667s-170.667 76.412-170.667 170.667c0 94.255 76.41 170.667 170.667 170.667 24.931 0 48.612-5.346 69.962-14.955l44.172 55.275-87.851 87.68h-154.283c-23.564 0-42.667 19.103-42.667 42.667 0 21.881 16.471 39.915 37.691 42.38l4.976 0.287h469.248l-42.368 128h-91.017c-21.879 0-39.915 16.471-42.379 37.691l-0.287 4.976c0 21.881 16.469 39.915 37.691 42.38l4.975 0.287h152.644zM256 320c-47.128 0-85.333-38.204-85.333-85.333s38.205-85.333 85.333-85.333c47.128 0 85.333 38.204 85.333 85.333 0 10.974-2.071 21.461-5.843 31.095l-46.173-57.749c-14.72-18.402-41.57-21.385-59.971-6.665-16.985 13.589-20.834 37.513-9.748 55.586l3.084 4.386 46.186 57.715c-4.197 0.636-8.495 0.964-12.869 0.964zM786.88 317.905l21.619-65.276c7.415-22.37-4.71-46.511-27.076-53.922-20.77-6.882-43.072 3.076-52.087 22.447l-1.835 4.629-22.187 66.782c-14.059-15.211-22.647-35.554-22.647-57.899 0-47.13 38.204-85.333 85.333-85.333s85.333 38.204 85.333 85.333c0 40.64-28.407 74.645-66.453 83.238zM504.661 431.957l65.024 101.376h-166.613l101.589-101.376z" />
<glyph unicode="&#xe95c;" glyph-name="Open" d="M512 874.667c138.172 0 250.778-109.464 255.825-246.403l0.175-9.597-0.043-42.667h47.45c20.945 0 37.926-19.103 37.926-42.667v-469.333c0-23.565-16.981-42.667-37.926-42.667h-606.814c-20.946 0-37.926 19.102-37.926 42.667v469.333c0 23.564 16.98 42.667 37.926 42.667h474.031l0.043 42.667c0 94.257-76.412 170.667-170.667 170.667-47.761 0-92.276-19.662-124.361-53.784-12.358-13.142-22.575-28.15-30.232-44.458-10.015-21.33-35.424-30.504-56.755-20.489s-30.503 35.424-20.489 56.755c11.492 24.477 26.805 46.97 45.309 66.648 48.049 51.1 114.976 80.661 186.528 80.661zM768 490.667h-512v-384h512v384zM512 405.333c35.345 0 64-28.655 64-64 0-25.532-14.95-47.573-36.578-57.843l15.245-91.49h-85.333l15.287 91.469c-21.649 10.261-36.621 32.316-36.621 57.865 0 35.345 28.655 64 64 64z" />
<glyph unicode="&#xe95d;" glyph-name="Parameters" d="M597.333 874.667c23.565 0 42.667-19.103 42.667-42.667l0.043-67.495c29.692-12.024 57.31-28.106 82.159-47.557l51.52 29.719c18.948 10.941 42.803 5.693 55.548-11.451l2.735-4.166 85.333-147.802c10.94-18.95 5.696-42.803-11.452-55.546l-4.164-2.739-51.618-29.811c2.129-15.411 3.23-31.151 3.23-47.151 0-15.953-1.097-31.654-3.213-47.023l51.601-29.777c20.407-11.78 27.401-37.875 15.616-58.283l-85.333-147.802c-11.78-20.407-37.875-27.401-58.283-15.62l-51.388 29.658c-24.887-19.499-52.548-35.614-82.291-47.659l-0.043-67.494c0-23.565-19.102-42.667-42.667-42.667h-170.667c-23.564 0-42.667 19.102-42.667 42.667l0.001 67.477c-29.749 12.041-57.414 28.156-82.304 47.65l-51.414-29.632c-18.95-10.94-42.803-5.692-55.547 11.452l-2.737 4.169-85.333 147.802c-10.941 18.948-5.693 42.803 11.451 55.548l4.166 2.735 51.596 29.777c-2.118 15.369-3.213 31.070-3.213 47.023 0 16 1.101 31.74 3.23 47.151l-51.613 29.811c-20.407 11.784-27.399 37.879-15.617 58.286l85.333 147.802c11.782 20.407 37.876 27.399 58.284 15.617l51.5-29.728c24.867 19.465 52.503 35.556 82.217 47.584l-0.001 67.478c0 23.564 19.103 42.667 42.667 42.667h170.667zM554.667 789.333h-85.333l0.004-82.328-53.318-21.582c-17.681-7.157-34.491-16.283-50.132-27.18l-11.506-8.501-45.365-35.51-64.451 37.201-42.667-73.899 64.386-37.201-7.857-56.862c-1.612-11.665-2.427-23.505-2.427-35.473 0-7.957 0.361-15.855 1.076-23.684l1.338-11.691 7.836-56.866-64.351-37.124 42.667-73.899 64.416 37.082 45.335-35.511c15.050-11.785 31.349-21.85 48.595-29.99l13.108-5.739 53.318-21.581-0.004-82.33h85.333l0.077 82.351 53.269 21.572c17.698 7.168 34.526 16.307 50.176 27.221l11.516 8.516 45.363 35.537 64.367-37.129 42.667 73.899-64.35 37.12 7.834 56.87c1.604 11.631 2.415 23.441 2.415 35.375 0 7.979-0.363 15.898-1.079 23.753l-1.348 11.721-7.859 56.864 64.388 37.199-42.709 73.941-64.435-37.222-45.346 35.494c-15.027 11.761-31.3 21.804-48.516 29.929l-13.082 5.731-53.269 21.571-0.077 82.351zM512 618.667c94.255 0 170.667-76.41 170.667-170.667 0-94.255-76.412-170.667-170.667-170.667-94.257 0-170.667 76.412-170.667 170.667 0 94.257 76.41 170.667 170.667 170.667zM512 533.333c-47.13 0-85.333-38.204-85.333-85.333s38.204-85.333 85.333-85.333c47.13 0 85.333 38.204 85.333 85.333s-38.204 85.333-85.333 85.333z" />
<glyph unicode="&#xe95e;" glyph-name="Patrimony" d="M170.667 106.667h682.667c23.565 0 42.667-19.102 42.667-42.667s-19.102-42.667-42.667-42.667h-682.667c-23.564 0-42.667 19.102-42.667 42.667s19.102 42.667 42.667 42.667zM298.667 533.333c23.564 0 42.667-19.102 42.667-42.667v-256c0-23.565-19.103-42.667-42.667-42.667s-42.667 19.102-42.667 42.667v256c0 23.565 19.102 42.667 42.667 42.667zM533.376 869.12l369.506-213.333c20.407-11.782 27.396-37.876 15.616-58.284s-37.875-27.399-58.283-15.617l-348.045 200.968-348.324-201.145c-18.95-10.941-42.803-5.693-55.547 11.451l-2.736 4.166c-11.782 20.407-4.79 46.502 15.617 58.284l366.696 211.733c13.129 9.008 30.793 10.269 45.5 1.777zM512 533.333c23.565 0 42.667-19.102 42.667-42.667v-256c0-23.565-19.102-42.667-42.667-42.667s-42.667 19.102-42.667 42.667v256c0 23.565 19.102 42.667 42.667 42.667zM725.333 533.333c23.565 0 42.667-19.102 42.667-42.667v-256c0-23.565-19.102-42.667-42.667-42.667s-42.667 19.102-42.667 42.667v256c0 23.565 19.102 42.667 42.667 42.667z" />
<glyph unicode="&#xe95f;" glyph-name="Pets" d="M511.927 832c-139.325 0-258.912-99.195-284.66-236.122l-51.004-271.235c-2.933-15.599-4.41-31.437-4.41-47.309 0-141.385 114.615-256 255.999-256h168.243c15.889 0 31.744 1.481 47.356 4.42 138.944 26.15 230.379 159.991 204.224 298.935l-51.046 271.203c-25.775 136.925-145.37 236.108-284.702 236.108zM511.927 746.667c98.291 0 182.656-69.968 200.841-166.56l51.051-271.204c17.434-92.629-43.52-181.854-136.154-199.292-10.406-1.958-20.975-2.944-31.569-2.944h-168.243c-94.255 0-170.665 76.412-170.665 170.667 0 10.581 0.984 21.141 2.94 31.539l51.004 271.235c18.162 96.588 102.518 166.559 200.797 166.559zM382.468 847.617c-87.669 50.615-211.451-24.911-286.468-154.845s-78.534-274.895 9.135-325.511c35.793-20.663 77.605-20.305 119.661-3.797 5.74 2.253 16.623 65.532 32.65 189.839l20.866 40.631c102.607 132.804 151.991 202.542 148.153 209.215-10.606 18.438-25.207 33.62-43.996 44.468zM339.802 773.716c5.982-3.454 10.867-9.105 14.578-16.576 1.633-3.287-30.787-47.552-97.258-132.795-18.868-108.638-33.482-165.986-43.843-172.041-26.551-15.509-50.346-19.878-65.477-11.145-34.774 20.079-32.486 114.401 22.099 208.945s135.127 143.687 169.901 123.61zM646.426 847.617c87.671 50.615 211.452-24.911 286.468-154.845 75.021-129.934 78.537-274.895-9.135-325.511-35.789-20.663-77.602-20.305-119.659-3.797-5.739 2.253-16.623 65.532-32.649 189.839l-20.868 40.631c-102.605 132.804-151.991 202.542-148.151 209.215 10.607 18.438 25.207 33.62 43.994 44.468zM689.092 773.716c-5.982-3.453-10.867-9.104-14.575-16.576-1.634-3.287 30.784-47.552 97.259-132.795 18.867-108.638 33.481-165.986 43.84-172.041 26.551-15.509 50.347-19.878 65.476-11.145 34.778 20.079 32.486 114.401-22.097 208.945s-135.125 143.687-169.903 123.61zM511.701 192.004c72.363 0 160.917 115.362 115.226 175.846-38.165 50.513-193.105 49.438-230.452 0-44.431-58.816 43.538-175.846 115.227-175.846zM511.701 277.338c-2.27 0-17.109 10.739-29.184 26.803l-3.554 4.992c-1.109 1.651-2.142 3.285-3.089 4.877l-1.323 2.411-3.371-0.67c10.893 2.598 25.31 4.143 40.256 4.245l8.922-0.111c8.794-0.282 17.139-1.067 24.414-2.287l5.299-1.092-1.813-3.187c-1.856-3.085-4.062-6.323-6.558-9.574-12.092-15.753-27.255-26.406-29.999-26.406zM426.667 478.187c23.565 0 42.667 19.102 42.667 42.667 0 23.563-19.102 42.665-42.667 42.665s-42.667-19.103-42.667-42.665c0-23.565 19.103-42.667 42.667-42.667zM597.333 478.187c23.565 0 42.667 19.102 42.667 42.667 0 23.563-19.102 42.665-42.667 42.665s-42.667-19.103-42.667-42.665c0-23.565 19.102-42.667 42.667-42.667zM512 277.333c21.879 0 39.915-20.587 42.381-47.113l0.286-6.221v-106.667c0-29.457-19.102-53.333-42.667-53.333-21.879 0-39.915 20.587-42.381 47.113l-0.286 6.221v106.667c0 29.457 19.102 53.333 42.667 53.333z" />
<glyph unicode="&#xe960;" glyph-name="Phone" d="M282.92 211.571c-183.286 183.287-240.471 423.268-90.51 573.229 18.839 18.84 49.908 39.983 93.205 63.43 18.469 10.065 41.492 5.053 54.179-11.724l118.083-156.671c12.8-16.987 11.136-40.809-3.904-55.85l-50.374-50.373c-16.662-16.663-16.662-43.679 0-60.34l181.019-181.018c15.471-15.475 39.872-16.58 56.619-3.315l3.721 3.315 50.377 50.377c15.040 15.040 38.861 16.704 55.846 3.908l156.685-118.054c16.781-12.689 21.794-35.712 11.725-54.182-23.45-43.315-44.595-74.394-63.441-93.239-149.965-149.961-389.943-92.774-573.229 90.509zM343.26 271.91c161.99-161.988 347.394-195.661 452.55-90.509 9.638 9.643 18.586 20.262 26.773 31.774l5.649 8.422-98.807 74.432-24.128-24.119-7.296-6.69-3.789-3.183c-48.717-38.579-118.050-36.442-164.279 4.548l-5.653 5.325-181.020 181.022c-48.202 48.201-49.923 125.283-5.164 175.547l5.164 5.472 24.128 24.115-74.429 98.807-8.447-5.643c-7.67-5.458-14.946-11.253-21.801-17.365l-9.961-9.404c-105.155-105.155-71.482-290.558 90.51-452.55z" />
<glyph unicode="&#xe961;" glyph-name="Picture" d="M715.639 560.432l3.209-4.485 213.333-341.333c12.489-19.981 6.413-46.306-13.568-58.795-18.556-11.597-42.577-7.189-55.915 9.502l-2.88 4.066-180.352 288.597-218.667-291.584c-15.373-20.497-44.82-22.665-63.051-5.781l-3.726 3.908-112.252 133.372-122.188-134.588c-14.625-16.098-38.743-18.441-56.085-6.246l-4.185 3.354c-16.101 14.626-18.443 38.741-6.247 56.085l3.353 4.186 155.026 170.667c16.124 17.749 43.343 18.526 60.464 2.726l3.762-3.942 109.077-129.617 223.786 298.411c16.858 22.478 49.946 22.522 67.106 1.498zM362.667 789.333c82.474 0 149.333-66.859 149.333-149.333s-66.859-149.333-149.333-149.333c-82.475 0-149.333 66.859-149.333 149.333s66.859 149.333 149.333 149.333zM362.667 704c-35.346 0-64-28.654-64-64s28.654-64 64-64c35.346 0 64 28.654 64 64s-28.654 64-64 64z" />
<glyph unicode="&#xe962;" glyph-name="Planet" d="M512 874.667c235.639 0 426.667-191.025 426.667-426.667 0-235.639-191.027-426.667-426.667-426.667-235.642 0-426.667 191.027-426.667 426.667 0 135.062 62.755 255.466 160.698 333.645 2.284 3.157 5.087 6.023 8.348 8.51 3.375 2.575 7.012 4.568 10.789 5.998 69.681 49.412 154.857 78.514 246.831 78.514zM538.705 788.304l-51.281-57.168-30.323-53.649c-2.688-4.739-6.246-8.905-10.475-12.286l-4.442-3.112-65.332-39.822c-17.1-10.423-38.883-7.463-52.6 6.482l-3.531 4.074-46.097 60.455c-28.373-27.465-51.995-59.808-69.513-95.678l77.257-45.792 79.47-0.034c18.947 0 35.397-12.449 40.806-30.196l1.196-4.966 25.173-140.975 41.745-19.524c13.333-6.242 22.387-18.837 24.235-33.19l0.35-5.457v-94.447c0-6.925-1.685-13.717-4.873-19.802l-2.675-4.425-56.832-82.449c25.975-6.323 53.116-9.677 81.037-9.677 89.195 0 170.398 34.21 231.206 90.227l-47.266 14.976c-8.073 2.551-15.159 7.433-20.412 13.973l-2.923 4.122-52.361 83.891-76.484 61.402c-15.458 12.412-20.16 33.626-12.006 51.2l2.547 4.689 66.53 106.496-64.41 85.341c-13.555 17.959-10.714 43.043 5.7 57.596l4.028 3.163 107.75 74.788c-35.546 16.268-74.364 26.613-115.196 29.773zM170.667 448c0-130.112 72.8-243.221 179.888-300.813 0.636 2.052 1.474 4.023 2.472 5.943l2.766 4.591 54.192 78.609v54.016l-37.155 17.374c-10.99 5.141-19.194 14.677-22.706 26.125l-1.213 5.018-22.808 127.612-55.399-0.034c-5.747 0-11.414 1.161-16.669 3.392l-5.105 2.581-71.693 42.564c-4.309-21.658-6.569-44.053-6.569-66.978zM732.075 708.924l-100.821-69.948 55.42-73.391c9.468-12.545 11.187-29.128 4.868-43.187l-2.748-5.141-62.063-99.209 52.599-42.206c2.492-2.005 4.749-4.275 6.729-6.771l2.756-3.908 47.825-76.651 65.314-20.702c32.567 52.297 51.379 114.048 51.379 180.19 0 104.656-47.1 198.311-121.259 260.924zM342.822 744.525l22.405-29.347 23.083 14.037 26.008 45.935c-25.173-7.505-49.128-17.836-71.496-30.626z" />
<glyph unicode="&#xe963;" glyph-name="Plant" d="M896 874.667c23.565 0 42.667-19.103 42.667-42.667v-192c0-129.604-105.062-234.667-234.667-234.667h-149.333v-341.333c0-23.565-19.102-42.667-42.667-42.667s-42.667 19.102-42.667 42.667v213.333h-149.333c-129.603 0-234.667 105.062-234.667 234.667v192c0 23.564 19.103 42.667 42.667 42.667h192c59.148 0 113.186-21.883 154.458-57.994 22.336 106.243 116.625 185.994 229.542 185.994h192zM469.333 512c0 79.725-62.476 144.859-141.14 149.112l-8.194 0.221h-149.333v-149.333c0-79.727 62.476-144.858 141.14-149.111l8.194-0.222h149.333v149.333zM853.333 789.333h-149.333c-79.727 0-144.858-62.476-149.111-141.14l-0.222-8.194v-149.333h149.333c79.727 0 144.858 62.476 149.111 141.14l0.222 8.194v149.333z" />
<glyph unicode="&#xe964;" glyph-name="Play" d="M259.337 789.333c8.006 0 15.873-2.13 22.824-6.18l505.321-294.423c22.059-12.851 29.722-41.506 17.118-63.996-4.079-7.275-9.988-13.299-17.118-17.455l-505.321-294.426c-22.060-12.851-50.161-5.035-62.766 17.455-3.972 7.087-6.061 15.108-6.061 23.275v588.844c0 25.906 20.596 46.906 46.003 46.906z" />
<glyph unicode="&#xe965;" glyph-name="Professional" d="M682.667 832c23.565 0 42.667-19.103 42.667-42.667v-128h170.667c23.565 0 42.667-19.103 42.667-42.667v-512c0-23.565-19.102-42.667-42.667-42.667h-768c-23.564 0-42.667 19.102-42.667 42.667v512c0 23.564 19.103 42.667 42.667 42.667h170.667v128c0 23.564 19.103 42.667 42.667 42.667h341.333zM853.333 576h-682.667v-426.667h682.667v426.667zM640 746.667h-256v-85.333h256v85.333z" />
<glyph unicode="&#xe966;" glyph-name="Profile" d="M512 874.667c117.82 0 213.333-95.513 213.333-213.333s-95.514-213.333-213.333-213.333c-117.82 0-213.333 95.513-213.333 213.333s95.513 213.333 213.333 213.333zM512 789.333c-70.69 0-128-57.308-128-128s57.309-128 128-128c70.694 0 128 57.308 128 128s-57.306 128-128 128zM512.043 405.333c198.997 0 364.139-144.87 383.74-337.003 2.389-23.441-14.677-44.386-38.118-46.775-23.441-2.394-44.386 14.673-46.775 38.114-15.104 148.045-143.1 260.331-298.846 260.331-156.242 0-284.183-112.068-298.918-260.224-2.332-23.445-23.231-40.567-46.68-38.234s-40.567 23.232-38.234 46.682c19.137 192.41 184.329 337.109 383.833 337.109z" />
</font>
</defs>
</svg>
